Oops.. Este post tiene los enlaces eliminados!

Identi revisa las denuncias de los usuarios en busca de enlaces eliminados que no dejan descargar los archivos, este mensaje te informa que este post que estas viendo tiene los enlaces eliminados.

Usa el Buscador

Por favor, te recomendamos que uses el buscador para encontrar más alternativas.

Star Trek Beyond [2016] 720p WEBRip Ingles Mega

  • Categoría: Reciclaje
  • Publicado hace más de 2 meses
Star Trek Beyond [2016] 720p WEBRip Ingles Mega



Título original:    Star Trek Beyond
Año:    2016
Duración:    120 min.
País:    Estados Unidos Estados Unidos
Director:    Justin Lin
Guión:    Simon Pegg, Doug Jung, Roberto Orci, John D. Payne, Patrick McKay (Personajes: Gene Roddenberry)
Música:    Michael Giacchino
Fotografía:    Stephen F. Windon
Reparto:    Chris Pine, Zachary Quinto, Zoe Saldana, Karl Urban, Simon Pegg, Anton Yelchin, John Cho, Idris Elba, Sofia Boutella, Joseph Gatt, Deep Roy, Lydia Wilson, Joe Taslim, Adam DiMarco, Ashley Edner, Christian Sloan, Jodi Haynes
Productora:    Paramount Pictures / Bad Robot / Skydance Productions
Género:    Ciencia ficción. Aventuras. Acción | Aventura espacial. Star Trek. Secuela
Grupos:    Star Trek | Star Trek (Bad Robot) Novedad

Sinopsis

    El USS Enterprise, la nave insignia de la Flota Estelar liderada por el capitán James T. Kirk (Chris Pine), vuelve a surcar el universo para asegurarse de la protección de la Tierra y del resto de planetas aliados. Pero la tranquilidad durará poco y el peligro acecha. La primera etapa de su misión les llevará a un territorio desconocido, y su travesía de vigilancia pronto se convertirá en una carrera por la supervivencia espacial cuando se enfrenten a un nuevo y fiero enemigo, Krall (Idris Elba), una especie alienígena avanzada. Para frenar sus siniestros planes, Kirk deberá reunir a su equipo y usar todo sus recursos para resolver los desafíos a los que se enfrentarán. A la vez que intentan encontrar el modo de volver a la Tierra, su misión será proteger el futuro de la raza humana y preservar la armonía entre especies... Tercera entrega de la nueva saga de Star Trek.


MEDIA INFO



Star Trek Beyond 2016 720p WEBRip 900 Mb.mp4
Format                         : MPEG-4
Format profile                 : Base Media
Codec ID                       : isom (isom/avc1)
File size                      : 901 MiB
Duration                       : 2 h 2 min
Overall bit rate mode          : Variable
Overall bit rate               : 1 029 kb/s
Encoded date                   : UTC 2016-09-28 23:21:10
Tagged date                    : UTC 2016-09-28 23:21:10

Video
ID                             : 1
Format                         : AVC
Format/Info                    : Advanced Video Codec
Format profile                 : [email protected]
Format settings, CABAC         : Yes
Format settings, ReFrames      : 5 frames
Codec ID                       : avc1
Codec ID/Info                  : Advanced Video Coding
Duration                       : 2 h 2 min
Bit rate                       : 906 kb/s
Maximum bit rate               : 5 336 kb/s
Width                          : 1 280 pixels
Height                         : 536 pixels

Display aspect ratio           : 2.40:1
Frame rate mode                : Constant
Frame rate                     : 23.976 (24000/1001) FPS
Color space                    : YUV
Chroma subsampling             : 4:2:0
Bit depth                      : 8 bits
Scan type                      : Progressive
Bits/(Pixel*Frame)             : 0.055
Stream size                    : 793 MiB (88%)

Audio
ID                             : 2
Format                         : AAC
Format/Info                    : Advanced Audio Codec
Format profile                 : LC
Codec ID                       : 40
Duration                       : 2 h 2 min
Bit rate mode                  : Variable
Bit rate                       : 120 kb/s
Maximum bit rate               : 130 kb/s
Channel(s)                     : 2 channels
Channel positions              : Front: L R
Sampling rate                  : 48.0 kHz
Frame rate                     : 46.875 FPS (1024 spf)
Compression mode               : Lossy
Stream size                    : 105 MiB (12%)
Language                       : English
Encoded date                   : UTC 2016-09-28 21:59:08
Tagged date                    : UTC 2016-09-28 23:21:46















BUSQUE SUBS LATINOS PERO NO ENCONTRE UNOS DESCENTES


Star Trek Beyond [2016] 720p WEBRip Ingles Mega
55 Puntos Score: 9.2/10
Visitas: 3282 Favoritos: 3
Ver los usuarios que votaron...
8 Comentarios Star Trek Beyond [2016] 720p WEBRip Ingles Mega
Gracias, tiene buen puntaje en rotten tomatoes. Saludos
Hola! Gracias, te dejo mis 10 puntos. Saludos  
exelente amigo una consulta tiene sub ?
buen dia ya tendras los subtitulos gran aporte gracias
excelente calidad
Gracias por tu esfuerzo. (Ya hay Subs. y relativamente buenos-Subdivx-Hay que elegir y probar con el editor)  
alguien consiguio subtitulos para aca ?
Este post esta cerrado y no se permiten comentarios.
Para dejar un comentario Registrate! o.. eres ya usuario? Accede!