Oops.. Este post tiene los enlaces eliminados!

Identi revisa las denuncias de los usuarios en busca de enlaces eliminados que no dejan descargar los archivos, este mensaje te informa que este post que estas viendo tiene los enlaces eliminados.

Usa el Buscador

Por favor, te recomendamos que uses el buscador para encontrar más alternativas.

El Crimen del padre Amaro[Dvdrip] Latino Mega

  • Categoría: Reciclaje
  • Publicado hace más de 2 meses
El Crimen del padre Amaro[Dvdrip] Latino Mega





Título original:    El crimen del padre Amaro
Año:    2002
Duración:    118 min.
País:    México México
Director:    Carlos Carrera
Guión:    Vicente Leñero (Novela: Eça de Queiroz)
Música:    Rosino Serrano
Fotografía:    Guillermo Granillo
Reparto:    Gael García Bernal, Ana Claudia Talancón, Sancho Gracia, Angélica Aragón, Luisa Huertas, Damián Alcázar, Pedro Armendáriz Jr., Ernesto Gómez Cruz, Andrés Montiel, Gastón Melo, Fernando Becerril, Lorenzo de Rodas, Verónica Langer, Jorge Zárate, Dagoberto Gama, Juan Ignacio Aranda
Productora:    Coproducción México-España-Francia-Argentina; Alameda Films / Artcam International / Blu Films
Género:    Drama | Religión


Sinopsis

    Amaro, un joven de 24 años recién ordenado sacerdote, llega a la parroquia del pequeño pueblo mexicano de Los Reyes para auxiliar en los servicios del templo al padre Benito. En el pueblo, el padre Amaro conoce a Amelia, una hermosa muchacha de 16 años. Poco a poco, el joven sacerdote se va dando cuenta de cosas que suceden en el pueblo relacionadas con los narcos de la región, encabezados por El Chato Aguilar.




Media info

el.crimen.del.padre.amaro.avi
Format                         : AVI
Format/Info                    : Audio Video Interleave
File size                      : 696 MiB
Duration                       : 1 h 54 min
Overall bit rate               : 853 kb/s
Writing library                : AVI OpenDML FlasKMPEG plugin release

Video
ID                             : 0
Format                         : MPEG-4 Visual
Format settings, BVOP          : 1
Format settings, QPel          : No
Format settings, GMC           : No warppoints
Format settings, Matrix        : Default (H.263)
Muxing mode                    : Packed bitstream
Codec ID                       : DX50
Codec ID/Hint                  : DivX 5
Duration                       : 1 h 54 min
Bit rate                       : 735 kb/s
Width                          : 512 pixels
Height                         : 288 pixels
Display aspect ratio           : 16:9
Frame rate                     : 25.000 FPS
Color space                    : YUV
Chroma subsampling             : 4:2:0
Bit depth                      : 8 bits
Scan type                      : Progressive
Compression mode               : Lossy
Bits/(Pixel*Frame)             : 0.199
Stream size                    : 599 MiB (86%)
Writing library                : DivX 5.0.3 (UTC 2003-01-24)

Audio
ID                             : 1
Format                         : MPEG Audio
Format version                 : Version 1
Format profile                 : Layer 3
Mode                           : Joint stereo
Codec ID                       : 55
Codec ID/Hint                  : MP3
Duration                       : 1 h 54 min
Bit rate mode                  : Constant
Bit rate                       : 112 kb/s
Channel(s)                     : 2 channels
Sampling rate                  : 48.0 kHz
Compression mode               : Lossy
Stream size                    : 91.4 MiB (13%)
Alignment                      : Split accross interleaves
Interleave, duration           : 200  ms (5.00 video frames)











El Crimen del padre Amaro[Dvdrip] Latino Mega
40 Puntos Score: 10/10
Visitas: 716 Favoritos: 2
Ver los usuarios que votaron...
4 Comentarios El Crimen del padre Amaro[Dvdrip] Latino Mega
Nunca olvidaré las tetas de Ana Claudia
ya somos 2 yo tampoco ja ja ja  
Cita paletero7: Mostrar
Solo por esa referencia la voy a descargar
Este post esta cerrado y no se permiten comentarios.
Para dejar un comentario Registrate! o.. eres ya usuario? Accede!