Oops.. Este post tiene los enlaces eliminados!

Identi revisa las denuncias de los usuarios en busca de enlaces eliminados que no dejan descargar los archivos, este mensaje te informa que este post que estas viendo tiene los enlaces eliminados.

Usa el Buscador

Por favor, te recomendamos que uses el buscador para encontrar más alternativas.

Gattaca [1997] 720p BrRip x264 Latino MEGA

  • Categoría: Reciclaje
  • Publicado hace más de 2 meses
Gattaca [1997] 720p BrRip x264 Latino MEGA







Título original:    Gattaca
Año:    1997
Duración:    106 min.
País:    Estados Unidos Estados Unidos
Director:    Andrew Niccol
Guión:    Andrew Niccol
Música:    Michael Nyman
Fotografía:    Slawomir Idziak
Reparto:    Ethan Hawke, Uma Thurman, Jude Law, Loren Dean, Alan Arkin, Gore Vidal, Xander Berkeley, Elias Koteas, Ernest Borgnine, Tony Shalhoub, Blair Underwood, Maya Rudolph, Lindsey Ginter, Jayne Brook
Productora:    Jersey Films / Columbia Pictures
Género:    Ciencia ficción. Intriga | Distopía. Película de culto


Sinopsis

    Ambientada en una sociedad futura, en la que la mayor parte de los niños son concebidos in vitro y con técnicas de selección genética. Vincent (Ethan Hawke), uno de los últimos niños concebidos de modo natural, nace con una deficiencia cardíaca y no le auguran más de treinta años de vida. Se le considera un inválido y, como tal, está condenado a realizar los trabajos más desagradables.


MEDIA INFO



Gattaca.1997.720p.BrRip.x264.Latino.mkv
Format                         : Matroska
Format version                 : Version 4 / Version 2
File size                      : 832 MiB
Duration                       : 1 h 46 min

Overall bit rate               : 1 092 kb/s
Movie name                     : identi
Encoded date                   : UTC 2016-09-28 17:11:56
Writing application            : mkvmerge v8.3.0 ('Over the Horizon') 64bit
Writing library                : libebml v1.3.1 + libmatroska v1.4.2

Video
ID                             : 1
Format                         : AVC
Format/Info                    : Advanced Video Codec
Format profile                 : [email protected]
Format settings, CABAC         : Yes
Format settings, ReFrames      : 7 frames
Codec ID                       : V_MPEG4/ISO/AVC
Duration                       : 1 h 46 min
Bit rate                       : 898 kb/s
Width                          : 1 280 pixels
Height                         : 528 pixels

Display aspect ratio           : 2.40:1
Frame rate mode                : Constant
Frame rate                     : 23.976 (24000/1001) FPS
Color space                    : YUV
Chroma subsampling             : 4:2:0
Bit depth                      : 8 bits
Scan type                      : Progressive
Bits/(Pixel*Frame)             : 0.055
Stream size                    : 684 MiB (82%)
Writing library                : x264 core 129 r2245 bc13772
language                       : English
Default                        : Yes
Forced                         : No

Audio
ID                             : 2
Format                         : AC-3
Format/Info                    : Audio Coding 3
Mode extension                 : CM (complete main)
Format settings, Endianness    : Big
Codec ID                       : A_AC3
Duration                       : 1 h 46 min
Bit rate mode                  : Constant
Bit rate                       : 192 kb/s
Channel(s)                     : 2 channels
Channel positions              : Front: L R
Sampling rate                  : 44.1 kHz
Frame rate                     : 28.711 FPS (1536 spf)
Compression mode               : Lossy
Stream size                    : 146 MiB (18%)
Language                       : Spanish
Default                        : Yes
Forced                         : No



















Gattaca [1997] 720p BrRip x264 Latino MEGA
57 Puntos Score: 8.1/10
Visitas: 815 Favoritos: 4
Ver los usuarios que votaron...
8 Comentarios Gattaca [1997] 720p BrRip x264 Latino MEGA
Gracias por compartir  
Buena peli, gracias!!  
Muchas gracias
Este post esta cerrado y no se permiten comentarios.
Para dejar un comentario Registrate! o.. eres ya usuario? Accede!