Oops.. Este post tiene los enlaces eliminados!

Identi revisa las denuncias de los usuarios en busca de enlaces eliminados que no dejan descargar los archivos, este mensaje te informa que este post que estas viendo tiene los enlaces eliminados.

Usa el Buscador

Por favor, te recomendamos que uses el buscador para encontrar más alternativas.

Ghostbusters [2016]720p Vose Mega+Audios Latino

  • Categoría: Reciclaje
  • Publicado hace más de 2 meses
Ghostbusters [2016] 720p VOSE Mega+Audios Latino Final Theatrical + Extended










Título original:  Ghostbusters
Año:    2016
Duración:    117 min.
País:    Estados Unidos Estados Unidos
Director:    Paul Feig
Guión:    Katie Dippold, Paul Feig (Personajes: Harold Ramis, Dan Aykroyd)
Música:    Theodore Shapiro
Fotografía:    Robert D. Yeoman
Reparto:    Melissa McCarthy, Kristen Wiig, Leslie Jones, Kate McKinnon, Cecily Strong, Chris Hemsworth, Andy Garcia, Michael Kenneth Williams, Neil Casey, Matt Walsh, Nate Corddry, Mark Burzenski, Pat Kiernan, Nick Austin, Bill Murray, Ernie Hudson, Sigourney Weaver
Productora:    Sony Pictures Entertainment (SPE) / Pascal Pictures
Género:    Fantástico. Comedia | Cine familiar. Sobrenatural. Comedia de terror. Remake. Fantasmas
Grupos:    Los Cazafantasmas Novedad


Sinopsis

    Manhattan, Nueva York. Después de casi treinta años sin saber de ellos, los fantasmas y demonios se han vuelto a escapar de los infiernos para destruir la ciudad. Esta vez un nuevo equipo de Cazafantasmas, formado por un grupo de cuatro mujeres, está dispuesto a terminar con cualquier amenaza espectral.



Ghostbusters.2016.720p.WEBRip.x264.VOSE


Format                         : MPEG-4
Format profile                 : Base Media
Codec ID                       : isom (isom)
File size                      : 875 MiB
Duration                       : 1 h 56 min

Overall bit rate mode          : Variable
Overall bit rate               : 1 049 kb/s
Encoded date                   : UTC 2016-09-22 07:30:21
Tagged date                    : UTC 2016-09-22 07:30:21

Video
ID                             : 1
Format                         : AVC
Format/Info                    : Advanced Video Codec
Format profile                 : [email protected]
Format settings, CABAC         : Yes
Format settings, ReFrames      : 5 frames
Codec ID                       : avc1
Codec ID/Info                  : Advanced Video Coding
Duration                       : 1 h 56 min
Bit rate                       : 949 kb/s
Maximum bit rate               : 6 120 kb/s
Width                          : 1 280 pixels
Height                         : 528 pixels

Display aspect ratio           : 2.40:1
Frame rate mode                : Constant
Frame rate                     : 23.976 (24000/1001) FPS
Color space                    : YUV
Chroma subsampling             : 4:2:0
Bit depth                      : 8 bits
Scan type                      : Progressive
Bits/(Pixel*Frame)             : 0.059
Stream size                    : 792 MiB (90%)
Writing library                : x264 core 148 r2638 7599210
Encoded date                   : UTC 2016-09-22 03:23:40
Tagged date                    : UTC 2016-09-22 07:30:30
Color range                    : Limited
Color primaries                : BT.709
Matrix coefficients            : BT.709

Audio
ID                             : 2
Format                         : AAC
Format/Info                    : Advanced Audio Codec
Format profile                 : LC
Codec ID                       : 40
Duration                       : 1 h 56 min
Source duration                : 1 h 56 min
Bit rate mode                  : Variable
Bit rate                       : 96.0 kb/s
Maximum bit rate               : 171 kb/s
Channel(s)                     : 2 channels
Channel positions              : Front: L R
Sampling rate                  : 48.0 kHz
Frame rate                     : 46.875 FPS (1024 spf)
Compression mode               : Lossy
Stream size                    : 80.1 MiB (9%)
Source stream size             : 80.1 MiB (9%)
Default                        : Yes
Alternate group                : 1
Idioma                    : English








ENLACES PELICULA



Audio Latino Final Theatrical

General
Solo audio latino ghostbusters.theatrical.ac3
Format                         : AC-3
Format/Info                    : Audio Coding 3
File size                      : 160 MiB
Duration                       : 1 h 56 min

Overall bit rate mode          : Constant
Overall bit rate               : 192 kb/s

Audio
Format                         : AC-3
Format/Info                    : Audio Coding 3
Mode extension                 : CM (complete main)
Format settings, Endianness    : Big
Duration                       : 1 h 56 min
Bit rate mode                  : Constant
Bit rate                       : 192 kb/s
Channel(s)                     : 2 channels
Channel positions              : Front: L R
Sampling rate                  : 44.1 kHz
Frame rate                     : 28.711 FPS (1536 spf)
Compression mode               : Lossy
Stream size                    : 160 MiB (100%)




[/font][/size]
Audio Latino Final Extended

General
Solo audio ghostbusters extended.ac3
Format                         : AC-3
Format/Info                    : Audio Coding 3
File size                      : 184 MiB
Duration                       : 2 h 13 min

Overall bit rate mode          : Constant
Overall bit rate               : 192 kb/s

Audio
Format                         : AC-3
Format/Info                    : Audio Coding 3
Mode extension                 : CM (complete main)
Format settings, Endianness    : Big
Duration                       : 2 h 13 min
Bit rate mode                  : Constant
Bit rate                       : 192 kb/s
Channel(s)                     : 2 channels
Channel positions              : Front: L R
Sampling rate                  : 44.1 kHz
Frame rate                     : 28.711 FPS (1536 spf)
Compression mode               : Lossy
Stream size                    : 184 MiB (100%)



COMENTAR ES ADRADECER ![/font][/size]!!!!


Ghostbusters [2016]720p Vose Mega+Audios Latino
15 Puntos Score: 7.5/10
Visitas: 1436 Favoritos: 0
Ver los usuarios que votaron...
12 Comentarios Ghostbusters [2016]720p Vose Mega+Audios Latino
gracias bajando °°
OJala pudiera darte mas puntos!! genial tu aporte!!
día de la independencia tendrás doc?
como sincronizo el audio latino con la pelicula o como le pongo el audio latino a la pelicula
@emeritusMX con el mkvmerge sencillo programa asi facil y rapido buscalo aki o en youtube hay muchos tutoriales
pregunta? la peli es extendida
@watassi la peli es la theatrical
Bajado!!! Excelente!!!
Graciassssss millllll !!!
Este post esta cerrado y no se permiten comentarios.
Para dejar un comentario Registrate! o.. eres ya usuario? Accede!