Oops.. Este post tiene los enlaces eliminados!

Identi revisa las denuncias de los usuarios en busca de enlaces eliminados que no dejan descargar los archivos, este mensaje te informa que este post que estas viendo tiene los enlaces eliminados.

Usa el Buscador

Por favor, te recomendamos que uses el buscador para encontrar más alternativas.

La Herencia del Sr Deeds [2002] 720p Latino [MEGA]

  • Categoría: Reciclaje
  • Publicado hace más de 2 meses
La Herencia del Sr Deeds [Mr. Deeds] [2002] 720p Latino [MEGA]




Título original:    Mr. Deeds
Año:    2002
Duración:    91 min.
País:    Estados Unidos Estados Unidos
Director:    Steven Brill
Guión:    Tim Herlihy (Remake: Robert Riskin)
Música:    Teddy Castellucci
Fotografía:    Peter Lyons Collister
Reparto:    Adam Sandler, Winona Ryder, John Turturro, Peter Gallagher, Steve Buscemi, Jared Harris, Allen Covert, Erick Avari, Harve Presnell, John McEnroe
Productora:    Columbia Pictures / New Line Cinema
Género:    Comedia. Romance | Comedia romántica. Remake

Sinopsis

    Deeds (Adam Sandler) es un ingenuo provinciano que vive en un pueblo de New Hampshire. Como propietario de "Deeds’ Pizza", la única pizzeria del pueblo, se ha hecho muy popular por su particular manera de entretener a los clientes recitándoles sus insólitos poemas. La vida transcurre plácidamente hasta que recibe la noticia de que un pariente lejano le ha dejado una herencia de cuarenta billones de dólares, una cadena de medios de comunicación, un equipo de fútbol, un equipo de baloncesto y un helicóptero privado.



MEDIA INFO



Mr.Deeds.2002.720p.BrRip.Latino[Identi].mkv

Format                         : Matroska
Format version                 : Version 4 / Version 2
File size                      : 732 MiB
Duration                       : 1 h 36 min

Overall bit rate               : 1 059 kb/s
Movie name                     : Luis_f [Identi.li]
Encoded date                   : UTC 2016-09-27 13:30:54
Writing application            : mkvmerge v8.3.0 ('Over the Horizon') 64bit
Writing library                : libebml v1.3.1 + libmatroska v1.4.2

Video
ID                             : 1
Format                         : AVC
Format/Info                    : Advanced Video Codec
Format profile                 : [email protected]
Format settings, CABAC         : Yes
Format settings, ReFrames      : 5 frames
Codec ID                       : V_MPEG4/ISO/AVC
Duration                       : 1 h 36 min
Bit rate                       : 867 kb/s
Width                          : 1 280 pixels
Height                         : 688 pixels

Display aspect ratio           : 1.85:1
Frame rate mode                : Constant
Frame rate                     : 23.976 (24000/1001) FPS
Color space                    : YUV
Chroma subsampling             : 4:2:0
Bit depth                      : 8 bits
Scan type                      : Progressive
Bits/(Pixel*Frame)             : 0.041
Stream size                    : 598 MiB (82%)
Writing library                : x264 core 114 r1924 08d04a4
Forced                         : No

Audio
ID                             : 2
Format                         : AC-3
Format/Info                    : Audio Coding 3
Mode extension                 : CM (complete main)
Format settings, Endianness    : Big
Codec ID                       : A_AC3
Duration                       : 1 h 36 min
Bit rate mode                  : Constant
Bit rate                       : 192 kb/s
Channel(s)                     : 2 channels
Channel positions              : Front: L R
Sampling rate                  : 44.1 kHz
Frame rate                     : 28.711 FPS (1536 spf)
Compression mode               : Lossy
Delay relative to video        : 10 ms
Stream size                    : 133 MiB (18%)
Language                       : Spanish
Default                        : Yes
Forced                         : No


















La Herencia del Sr Deeds [2002] 720p Latino [MEGA]
30 Puntos Score: 10/10
Visitas: 669 Favoritos: 4
Ver los usuarios que votaron...
4 Comentarios La Herencia del Sr Deeds [2002] 720p Latino [MEGA]
Muchas gracias  
Buen aporte!! No la habia visto, a ver que tal.
Gracias  
Bajando, Muchas Gracias..
de las mejores del senor sandler,gracias
Este post esta cerrado y no se permiten comentarios.
Para dejar un comentario Registrate! o.. eres ya usuario? Accede!