Oops.. Este post tiene los enlaces eliminados!

Identi revisa las denuncias de los usuarios en busca de enlaces eliminados que no dejan descargar los archivos, este mensaje te informa que este post que estas viendo tiene los enlaces eliminados.

Usa el Buscador

Por favor, te recomendamos que uses el buscador para encontrar más alternativas.

Maverick (1994) 720p Brrip x265 HEVC Latino Mega

  • Categoría: Reciclaje
  • Publicado hace más de 2 meses
Maverick (1994) 720p Brrip x265 HEVC Latino Mega







Título original:    Maverick
Año:    1994
Duración:    129 min.
País:    Estados Unidos Estados Unidos
Director:    Richard Donner
Guión:    William Goldman
Música:    Randy Edelman
Fotografía:    Vilmos Zsigmond
Reparto:    Mel Gibson, Jodie Foster, James Garner, James Coburn, Alfred Molina, Geoffrey Lewis, Denver Pyle, Dub Taylor, Danny Glover, Graham Greene, Corey Feldman, Max Perlich, Leo Gordon, Margot Kidder, Robert Fuller, Doug McClure, Will Hutchins, Waylon Jennings, Bert Ramson, Michael Paul Chan
Productora:    Warner Bros. / Icon
Género:    Western. Comedia | Juego. Póker. Remake

Sinopsis

    Bret Maverick es un atractivo jugador, timador y embaucador que necesita tres mil dólares para poder participar en una gran partida de póker, que se organiza en un barco fluvial de Luisiana y que empezará en pocos días. Entre los jugadores se encuentra la dulce Annabelle Bransford y el salvaje Angel, ninguno de los cuales sentiría su falta. Todo se complicará cuando entre en escena el Marshall Zane Cooper.



MEDIA INFO





Maverick (1994) 720p BluRay x265 HEVC (1).mkv

Format                         : Matroska
Format version                 : Version 4 / Version 2
File size                      : 843 MiB
Duration                       : 2 h 6 min
Overall bit rate               : 930 kb/s
Movie name                     : By Luis_f
Encoded date                   : UTC 2016-09-27 17:17:48
Writing application            : mkvmerge v8.3.0 ('Over the Horizon') 64bit
Writing library                : libebml v1.3.1 + libmatroska v1.4.2

Video
ID                             : 1
Format                         : HEVC
Format/Info                    : High Efficiency Video Coding
Codec ID                       : V_MPEGH/ISO/HEVC
Duration                       : 2 h 6 min
Bit rate                       : 801 kb/s
Width                          : 1 280 pixels
Height                         : 544 pixels

Display aspect ratio           : 2.40:1
Original display aspect ratio  : 2.40:1
Frame rate mode                : Constant
Frame rate                     : 23.976 (24000/1001) FPS
Color space                    : YUV
Chroma subsampling             : 4:2:0
Bit depth                      : 8 bits
Bits/(Pixel*Frame)             : 0.048
Stream size                    : 725 MiB (86%)
Writing library                : x265 1.5:[Windows][GCC 4.9.0][64 bit]
Default                        : Yes
Forced                         : No
Color range                    : Limited
Color primaries                : BT.709
Transfer characteristics       : BT.709
Matrix coefficients            : BT.709

Audio
ID                             : 2
Format                         : MPEG Audio
Format version                 : Version 1
Format profile                 : Layer 3
Mode                           : Joint stereo
Mode extension                 : MS Stereo
Codec ID                       : A_MPEG/L3
Codec ID/Hint                  : MP3
Duration                       : 2 h 6 min
Bit rate mode                  : Constant
Bit rate                       : 128 kb/s
Channel(s)                     : 2 channels
Sampling rate                  : 48.0 kHz
Frame rate                     : 41.667 FPS (1152 spf)
Compression mode               : Lossy
Delay relative to video        : 3 s 67 ms
Stream size                    : 116 MiB (14%)
Writing library                : LAME
Language                       : Spanish
Default                        : Yes
Forced                         : No






















Maverick (1994) 720p Brrip x265 HEVC Latino Mega
85 Puntos Score: 8.5/10
Visitas: 818 Favoritos: 2
Ver los usuarios que votaron...
11 Comentarios Maverick (1994) 720p Brrip x265 HEVC Latino Mega
nunca vi completa esta del viejo Mel
que buena peli, gracias por compartir  
Muchas gracias por los aportes men
Men algunos de tus links no cargan espero lo puedas solucionar muchas gracias
@lestat1 checale los puse directos
gracias men buena onda
Pinta como buena y en x265, cuando me recarguen los puntos vuelvo saludos  
Una de mis peliculas favoritas Gracias!!!
Buena calidad.Gracias por tu aporte
Este post esta cerrado y no se permiten comentarios.
Para dejar un comentario Registrate! o.. eres ya usuario? Accede!