Oops.. Este post tiene los enlaces eliminados!

Identi revisa las denuncias de los usuarios en busca de enlaces eliminados que no dejan descargar los archivos, este mensaje te informa que este post que estas viendo tiene los enlaces eliminados.

Usa el Buscador

Por favor, te recomendamos que uses el buscador para encontrar más alternativas.

Wanted [Se busca] 2008 720p BrRip x264 Latino Mega

  • Categoría: Reciclaje
  • Publicado hace más de 2 meses
Wanted [Se busca] 2008 720p BrRip x264 Latino Mega







Título original:    Wanted
Año:    2008
Duración:    106 min.
País:    Estados Unidos Estados Unidos
Director:    Timur Bekmambetov
Guión:    Michael Brandt, Chris Morgan, Derek Haas, Dean Georgaris (Cómic: J.G. Jones, Mark Millar)
Música:    Danny Elfman
Fotografía:    Mitchell Amundsen
Reparto:    James McAvoy, Angelina Jolie, Morgan Freeman, Terence Stamp, Thomas Kretschmann, Common, Kristen Hager, Marc Warren, David O'Hara, Dato Bakhtadze, Chris Pratt
Productora:    Universal Pictures / Spyglass Entertainment
Género:    Acción. Thriller | Venganza. Cómic
Grupos:    Adaptaciones de Mark Millar Novedad

Sinopsis

    Un joven (James McAvoy) que daba por muerto a su padre, descubre que era un asesino a sueldo y que acaba de ser asesinado. A continuación, es reclutado por la sexy Fox (Angelina Jolie) para la misma organización en la que trabajaba su padre. Sloam (Morgan Freeman) se encarga de entrenarlo para que siga los pasos de su progenitor.



MEDIA INFO




Wanted.2008.720p.BrRip.x264.mkv

Format                         : Matroska
Format version                 : Version 4 / Version 2
File size                      : 1.01 GiB
Duration                       : 1 h 49 min

Overall bit rate               : 1 311 kb/s
Encoded date                   : UTC 2016-09-25 21:26:21
Writing application            : mkvmerge v8.3.0 ('Over the Horizon') 64bit
Writing library                : libebml v1.3.1 + libmatroska v1.4.2

Video
ID                             : 1
Format                         : AVC
Format/Info                    : Advanced Video Codec
Format profile                 : [email protected]
Format settings, CABAC         : Yes
Format settings, ReFrames      : 12 frames
Codec ID                       : V_MPEG4/ISO/AVC
Duration                       : 1 h 49 min
Bit rate                       : 856 kb/s
Width                          : 1 280 pixels
Height                         : 544 pixels

Display aspect ratio           : 2.35:1
Frame rate mode                : Constant
Frame rate                     : 23.976 (24000/1001) FPS
Color space                    : YUV
Chroma subsampling             : 4:2:0
Bit depth                      : 8 bits
Scan type                      : Progressive
Bits/(Pixel*Frame)             : 0.051
Stream size                    : 672 MiB (65%)
Writing library                : x264 core 125 r2200 999b753
Default                        : Yes
Forced                         : No

Audio
ID                             : 2
Format                         : AC-3
Format/Info                    : Audio Coding 3

Mode extension                 : CM (complete main)
Format settings, Endianness    : Big
Codec ID                       : A_AC3
Duration                       : 1 h 49 min
Bit rate mode                  : Constant
Bit rate                       : 448 kb/s
Channel(s)                     : 6 channels
Channel positions              : Front: L C R, Side: L R, LFE
Sampling rate                  : 48.0 kHz
Frame rate                     : 31.250 FPS (1536 spf)
Compression mode               : Lossy
Stream size                    : 352 MiB (34%)
Language                       : Spanish
Default                        : Yes
Forced                         : No

Text
ID                             : 3
Format                         : PGS
Muxing mode                    : zlib
Codec ID                       : S_HDMV/PGS
Codec ID/Info                  : Picture based subtitle format used on BDs/HD-DVDs
Duration                       : 1 h 41 min
Bit rate                       : 6 103 b/s
Count of elements              : 1658
Stream size                    : 4.44 MiB (0%)
Language                       : Spanish
Default                        : Yes
Forced                         : No



















Wanted [Se busca] 2008 720p BrRip x264 Latino Mega
0 Puntos Score: 0/10
Visitas: 743 Favoritos: 1
3 Comentarios Wanted [Se busca] 2008 720p BrRip x264 Latino Mega
@eldiegor10 otra mas para la coleccion
gracias bajando !!!  
Este post esta cerrado y no se permiten comentarios.
Para dejar un comentario Registrate! o.. eres ya usuario? Accede!