Oops.. Este post tiene los enlaces eliminados!

Identi revisa las denuncias de los usuarios en busca de enlaces eliminados que no dejan descargar los archivos, este mensaje te informa que este post que estas viendo tiene los enlaces eliminados.

Usa el Buscador

Por favor, te recomendamos que uses el buscador para encontrar más alternativas.

Satanic [2016] 720p BRRip x264 VOSE Mega

  • Categoría: Reciclaje
  • Publicado hace más de 2 meses
Satanic [2016] 720p BRRip x264 VOSE Mega






Título original:    Satanic
Año:    2016
Duración:    85 min.
País:    Estados Unidos Estados Unidos
Director:    Jeffrey G. Hunt
Guión:    Anthony Jaswinski
Música:    Jim Dooley, Todd Haberman
Fotografía:    Mike Karasick
Reparto:    Sarah Hyland, Steven Krueger, Justin Chon, Clara Mamet, Marc Barnes, Devanny Pinn, Sophie Dalah, Jeffrey G. Hunt, Stevin Knight, Jim Jepson, William "Will" Daubert
Productora:    Circle of Confusion / Marvista Entertainment
Género:    Terror | Sobrenatural


Sinopsis

    Sigue a una furgoneta llena de universitarias que están visitando lugares en donde se han realizado ritos satánicos en Los Ángeles. Su curiosidad las llevará hasta el propietario de una casa espeluznante, después a salvar a una chica sospechosa de haber contemplado un sacrificio humano. El culto del que escapó la joven será la clave para resolver los atroces crímenes detrás de unas practicas infernales.


MEDIA INFO




Satanic.2016.720p.BRRip.x264.mp4


Format                         : MPEG-4
Format profile                 : Base Media
Codec ID                       : isom (isom)
File size                      : 632 MiB
Duration                       : 1 h 24 min

Overall bit rate mode          : Variable
Overall bit rate               : 1 049 kb/s
Encoded date                   : UTC 2016-09-23 23:26:19
Tagged date                    : UTC 2016-09-23 23:26:19

Video
ID                             : 1
Format                         : AVC
Format/Info                    : Advanced Video Codec
Format profile                 : [email protected]
Format settings, CABAC         : Yes
Format settings, ReFrames      : 5 frames
Codec ID                       : avc1
Codec ID/Info                  : Advanced Video Coding
Duration                       : 1 h 24 min
Bit rate                       : 949 kb/s
Maximum bit rate               : 12.6 Mb/s
Width                          : 1 280 pixels
Height                         : 536 pixels

Display aspect ratio           : 2.40:1
Frame rate mode                : Constant
Frame rate                     : 23.976 (24000/1001) FPS
Color space                    : YUV
Chroma subsampling             : 4:2:0
Bit depth                      : 8 bits
Scan type                      : Progressive
Bits/(Pixel*Frame)             : 0.058
Stream size                    : 572 MiB (90%)
Color range                    : Limited
Color primaries                : BT.709
Matrix coefficients            : BT.709

Audio
ID                             : 2
Format                         : AAC
Format/Info                    : Advanced Audio Codec
Format profile                 : LC
Codec ID                       : 40
Duration                       : 1 h 24 min
Source duration                : 1 h 24 min
Bit rate mode                  : Variable
Bit rate                       : 96.0 kb/s
Maximum bit rate               : 155 kb/s
Channel(s)                     : 2 channels
Channel positions              : Front: L R
Sampling rate                  : 48.0 kHz
Frame rate                     : 46.875 FPS (1024 spf)
Compression mode               : Lossy
Stream size                    : 57.9 MiB (9%)
Source stream size             : 57.9 MiB (9%)
Default                        : Yes
Alternate group                : 1
Tagged date                    : UTC 2016-09-23 23:26:27

















Satanic [2016] 720p BRRip x264 VOSE Mega
60 Puntos Score: 10/10
Visitas: 3280 Favoritos: 5
Ver los usuarios que votaron...
11 Comentarios Satanic [2016] 720p BRRip x264 VOSE Mega
me la llevo aver que tal, gracias
Gracias capo.  
Gracias amigo ! se ve buena !
se ve muy buena y mi genero favorito muchas gracias por tu aporte
Muchas gracias por el aporte, saludos
Este post esta cerrado y no se permiten comentarios.
Para dejar un comentario Registrate! o.. eres ya usuario? Accede!