Oops.. Este post tiene los enlaces eliminados!

Identi revisa las denuncias de los usuarios en busca de enlaces eliminados que no dejan descargar los archivos, este mensaje te informa que este post que estas viendo tiene los enlaces eliminados.

Usa el Buscador

Por favor, te recomendamos que uses el buscador para encontrar más alternativas.

Capitan America:Civil War 2016 [IMAX] 720p Latino

  • Categoría: Reciclaje
  • Publicado hace más de 2 meses
Capitan America:Civil War 2016 IMAX 720p BRRip Latino Mega










Título original:  Captain America: Civil War
Año: 2016
Duración: 147 min.
País: Estados Unidos Estados Unidos
Director: Anthony Russo, Joe Russo
Guión:Christopher Markus, Stephen McFeely (Cómic: Mark Millar) (Personajes: Joe Simon, Jack Kirby)
Música: Henry Jackman
Fotografía:Trent Opaloch
Reparto:Chris Evans, Robert Downey Jr., Scarlett Johansson, Sebastian Stan, Anthony Mackie, Don Cheadle, Jeremy Renner, Chadwick Boseman, Paul Bettany, Elizabeth Olsen, Paul Rudd, Emily VanCamp, Tom Holland, Daniel Brühl, Frank Grillo, William Hurt, Martin Freeman, Marisa Tomei, John Kani, John Slattery, Alfre Woodard, Stan Lee, Heidi Moneymaker, Gene Farber, Florence Kasumba
Productora:Marvel Studios / Marvel Entertainment / Sony Pictures Imageworks (SPI)
Género: Acción. Thriller. Fantástico | Superhéroes. Cómic. Marvel Comics. Secuela. 3-D
Grupos: Marvel Cinematic Universe | Iron Man | Capitán América | Spider-Man | Adaptaciones de Mark Millar Novedad
Web oficial:http://marvel.com/captainamerica

Sinopsis

    Después de que otro incidente internacional involucre a Los Vengadores, causando varios daños colaterales, aumentan las presiones políticas para instaurar un sistema que exija más responsabilidades y que determine cuándo deben contratar los servicios del grupo de superhéroes. Esta nueva situación dividirá a Los Vengadores, mientras intentan proteger al mundo de un nuevo y terrible villano. Tercera entrega de la saga Capitán América.



MEDIA INFO


Captain.America.Civil.War.2016.IMAX.720p.BRRip.mkv

Format                         : Matroska
Format version                 : Version 4 / Version 2
File size                      : 1.65 GiB
Duration                       : 2 h 27 min

Overall bit rate               : 1 598 kb/s
Movie name                     : Captain.America.Civil.War.2016.IMAX.720p.BRRip. BY Luis_f
Encoded date                   : UTC 2016-09-24 20:57:06
Writing application            : mkvmerge v8.3.0 ('Over the Horizon') 64bit
Writing library                : libebml v1.3.1 + libmatroska v1.4.2

Video
ID                             : 1
Format                         : AVC
Format/Info                    : Advanced Video Codec
Format profile                 : [email protected]
Format settings, CABAC         : Yes
Format settings, ReFrames      : 9 frames
Codec ID                       : V_MPEG4/ISO/AVC
Duration                       : 2 h 27 min
Bit rate                       : 1 212 kb/s
Width                          : 1 280 pixels
Height                         : 720 pixels

Display aspect ratio           : 16:9
Frame rate mode                : Constant
Frame rate                     : 23.976 (24000/1001) FPS
Color space                    : YUV
Chroma subsampling             : 4:2:0
Bit depth                      : 8 bits
Scan type                      : Progressive
Bits/(Pixel*Frame)             : 0.055
Stream size                    : 1.25 GiB (76%)
Writing library                : x264 core 146 r2538 121396c
Forced                         : No

Audio
ID                             : 2
Format                         : AC-3
Format/Info                    : Audio Coding 3
Mode extension                 : CM (complete main)
Format settings, Endianness    : Big
Codec ID                       : A_AC3
Duration                       : 2 h 27 min
Bit rate mode                  : Constant
Bit rate                       : 384 kb/s
Channel(s)                     : 6 channels
Channel positions              : Front: L C R, Side: L R, LFE
Sampling rate                  : 48.0 kHz
Frame rate                     : 31.250 FPS (1536 spf)
Compression mode               : Lossy
Delay relative to video        : 1 s 0 ms
Stream size                    : 406 MiB (24%)
Title                          : By Chotin
Language                       : Spanish
Default                        : No
Forced                         : No

Text
ID                             : 3
Format                         : UTF-8
Codec ID                       : S_TEXT/UTF8
Codec ID/Info                  : UTF-8 Plain Text
Duration                       : 2 h 26 min
Bit rate                       : 50 b/s
Count of elements              : 1687
Stream size                    : 54.4 KiB (0%)
Language                       : Spanish
Default                        : Yes
Forced                         : No

















Capitan America:Civil War 2016 [IMAX] 720p Latino
55 Puntos Score: 9.2/10
Visitas: 2567 Favoritos: 1
Ver los usuarios que votaron...
20 Comentarios Capitan America:Civil War 2016 [IMAX] 720p Latino
bajando. gracias
impecable sigue asi y el mund es tuyo
Perdonen mi ignorancia... me podrian explicar que dif. hay entre IMAX 720p y otros formatos???. GRacias
bajando gracias por el aporte
Cita Lechuxsa: Mostrar
Misma pregunta  
@valos_ene @Lechuxsa en esta version las escenas donde luchan los vengadores las barras negras desaparacen dejando toda la pantalla completa
Cita luis_f: Mostrar
Gracias!  
Cita luis_f: Mostrar
MUchas gracias por la respuesta y muchisimas gracias por el aporte!!!!
MUchas gracias por el aporte esta fenomenal ,,,,
me lo llevo hijo mio...
bonitas barras las voy a tomar prestadas  
Cita luis_f: Mostrar

gracias es que voy a postear unas peliculas  
hola como estas, espero k muy bien disculpa mi ignorancia pero me pide contraseña para descomprimir y no veo donde esta me la relagas amigo gracias de antemano
Este post esta cerrado y no se permiten comentarios.
Para dejar un comentario Registrate! o.. eres ya usuario? Accede!