Oops.. Este post tiene los enlaces eliminados!

Identi revisa las denuncias de los usuarios en busca de enlaces eliminados que no dejan descargar los archivos, este mensaje te informa que este post que estas viendo tiene los enlaces eliminados.

Usa el Buscador

Por favor, te recomendamos que uses el buscador para encontrar más alternativas.

Goool! El comienzo de un Sueño[2005] 720p Latino

  • Categoría: Reciclaje
  • Publicado hace más de 2 meses
Goool! El comienzo de un Sueño [The Dream Begins] (2005) 720p BRRip x264










Título original:    Goal!
Año:    2005
Duración:    118 min.
País:    Reino Unido Reino Unido
Director:    Danny Cannon
Guión:    Adrian Butchart, Dick Clement, Ian La Frenais
Música:    Graeme Revell
Fotografía:    Michael Barrett
Reparto:    Kuno Becker, Alessandro Nivola, Stephen Dillane, Sean Pertwee, Tony Plana, Anna Friel, Marcel Iures, Miriam Colon, Emma Field-Rayner, Gary Lewis, Stephen Graham, Frances Barber, Cassandra Bell, Alan Shearer, David Beckham, Raúl González, Zinédine Zidane, Sven-Göran Eriksson
Productora:    Coproducción USA-GB; Walt Disney Pictures
Género:    Drama | Deporte. Fútbol
Grupos:    Goal Novedad

Sinopsis

    Como millones de niños de todo el mundo, Santiago tiene el sueño de ser un jugador de fútbol profesional. Sin embargo, viviendo en una barriada de Los Angeles, piensa que es un sueño difícil de cumplirse. Cuando el pequeño Santiago Munez (Kuno Becker) cruza la frontera de México y se traslada a América con su familia, sólo tiene dos posesiones: su balón de fútbol y una foto de la Copa del Mundo hecha jirones. Según crece, comprende que la tierra prometida donde le llevó su padre no tiene mucho que ofrecer a un muchacho cuya pasión es jugar al fútbol. Pero cuando el británico Glen Foy, un antiguo futbolista que llega al barrio, ve jugar a Santiago en un partido, reconoce de inmediato a un futbolista hábil, rápido y valiente: el tipo de talento del que está hambrienta la Premiere League inglesa. Glen le dice a Santiago que si viaja a Inglaterra, podría ponerle en contacto con un club que él conoce bien: el Newcastle United. Santiago cree que ésta es la oportunidad que ha estado esperando toda su vida, pero, como inmigrante ilegal, sabe que si se marcha perderá de vista a su familia para siempre, porque no podrá regresar.

MEDIA INFO

Goal! The Dream Begins (2005) 720p BRRip x264.mkv
Format                         : Matroska
Format version                 : Version 4 / Version 2
File size                      : 757 MiB
Duration                       : 1 h 58 min
Overall bit rate               : 896 kb/s
Movie name                     : identi-luis_f
Encoded date                   : UTC 2016-09-22 15:20:43
Writing application            : mkvmerge v8.3.0 ('Over the Horizon') 64bit
Writing library                : libebml v1.3.1 + libmatroska v1.4.2

Video
ID                             : 1
Format                         : AVC
Format/Info                    : Advanced Video Codec
Format profile                 : [email protected]
Format settings, CABAC         : Yes
Format settings, ReFrames      : 3 frames
Codec ID                       : V_MPEG4/ISO/AVC
Duration                       : 1 h 58 min
Bit rate                       : 783 kb/s
Width                          : 1 280 pixels
Height                         : 528 pixels
Display aspect ratio           : 2.40:1
Frame rate mode                : Constant
Frame rate                     : 23.976 FPS
Color space                    : YUV
Chroma subsampling             : 4:2:0
Bit depth                      : 8 bits
Scan type                      : Progressive
Bits/(Pixel*Frame)             : 0.048
Stream size                    : 661 MiB (87%)
Writing library                : x264 core 79
Default                        : Yes
Forced                         : No
Color range                    : Limited
Color primaries                : BT.709
Transfer characteristics       : BT.709
Matrix coefficients            : BT.709

Audio
ID                             : 2
Format                         : MPEG Audio
Format version                 : Version 1
Format profile                 : Layer 3
Codec ID                       : A_MPEG/L3
Codec ID/Hint                  : MP3
Duration                       : 1 h 57 min
Bit rate mode                  : Constant
Bit rate                       : 112 kb/s
Channel(s)                     : 2 channels
Sampling rate                  : 44.1 kHz
Frame rate                     : 38.281 FPS (1152 spf)
Compression mode               : Lossy
Delay relative to video        : 2 s 950 ms
Stream size                    : 94.6 MiB (12%)
Writing library                : LAME3.98r
Encoding settings              : -m s -V 4 -q 2 -lowpass 15.6 -b 112
Language                       : Spanish
Default                        : Yes
Forced                         : No





















Goool! El comienzo de un Sueño[2005] 720p Latino
15 Puntos Score: 7.5/10
Visitas: 1106 Favoritos: 1
Ver los usuarios que votaron...
7 Comentarios Goool! El comienzo de un Sueño[2005] 720p Latino
Muchas gracias por este aporte, saludos!  
Tienes las demas amigo?
Oh excelente espero que subas la 2 porque la 3 nada que ver con la historia
Espero que subas la segunda parte porque la tercera no me gustó, gracias  
Gracias loco, ojala tengas las que siguen
hermano podrias conseguirme la 2da de Gool xfavor  
Este post esta cerrado y no se permiten comentarios.
Para dejar un comentario Registrate! o.. eres ya usuario? Accede!