Oops.. Este post tiene los enlaces eliminados!

Identi revisa las denuncias de los usuarios en busca de enlaces eliminados que no dejan descargar los archivos, este mensaje te informa que este post que estas viendo tiene los enlaces eliminados.

Usa el Buscador

Por favor, te recomendamos que uses el buscador para encontrar más alternativas.

Alicia Atravez del Espejo [2016] 720p [X265]Latino

  • Categoría: Reciclaje
  • Publicado hace más de 2 meses
Alicia Atravez del Espejo[2016]720p[WEB-DL]Latino












Título original:    Alice Through the Looking Glass
Año:    2016
Duración:    113 min.
País:    Estados Unidos Estados Unidos
Director:    James Bobin
Guión:    Linda Woolverton
Música:    Danny Elfman
Fotografía:    Stuart Dryburgh
Reparto:    Mia Wasikowska, Johnny Depp, Helena Bonham Carter, Anne Hathaway, Sacha Baron Cohen, Michael Sheen, Alan Rickman, Stephen Fry, Timothy Spall, Rhys Ifans, Ed Speleers, Barbara Windsor, John Sessions, Paul Whitehouse, Karol Steele
Productora:    Walt Disney Pictures
Género:    Fantástico | Cuentos. Secuela. Viajes en el tiempo
Grupos:    Adaptaciones de Lewis Carroll | Alicia en el País de las Maravillas (Disney) | Remakes de Clásicos de Disney Novedad

Sinopsis

   En una fiesta en casa de Lord Ascott, Alicia se encuentra con Ábsolem, que ahora es una mariposa monarca azul que ayuda a Alicia a regresar al fantástico mundo de Infratierra, donde encuentra a sus amigos: el Conejo Blanco, el Gato Sonriente, Lirón, la Liebre, los Tweedles y el Sombrerero Loco, pero éste, desafortunadamente, ya no es el mismo: ha perdido su “muchosidad”. Alicia tendrá entonces que ir a ver a Tiempo. Tiempo, una peculiar criatura mitad humano, mitad reloj, vive en un vacío infinito y posee la cronoesfera, una esfera metálica que permitirá a Alicia volver para salvar a la familia del Sombrerero.






MEDIA INFO



Alicia.Atravez.del.Espejo[2016]720p[WEB-DL]X265 latino.mkv
Format                         : Matroska
Format version                 : Version 4 / Version 2
File size                      : 718 MiB
Duration                       : 1 h 53 min

Overall bit rate               : 886 kb/s
Movie name                     : Identi
Encoded date                   : UTC 2016-09-23 15:46:33
Writing application            : mkvmerge v8.3.0 ('Over the Horizon') 64bit
Writing library                : libebml v1.3.1 + libmatroska v1.4.2

Video
ID                             : 1
Format                         : HEVC
Format/Info                    : High Efficiency Video Coding
Format profile                 : [email protected]@Main
Codec ID                       : V_MPEGH/ISO/HEVC
Duration                       : 1 h 53 min
Bit rate                       : 693 kb/s
Width                          : 1 280 pixels
Height                         : 688 pixels

Display aspect ratio           : 1.85:1
Frame rate mode                : Constant
Frame rate                     : 24.000 FPS
Color space                    : YUV
Chroma subsampling             : 4:2:0
Bit depth                      : 8 bits
Bits/(Pixel*Frame)             : 0.033
Stream size                    : 562 MiB (78%)
Writing library                : x265 1.9:[Windows][GCC 4.9.0][64 bit] 8bit
Forced                         : No
Color range                    : Limited
Color primaries                : BT.709
Transfer characteristics       : BT.709
Matrix coefficients            : BT.709

Audio
ID                             : 2
Format                         : AC-3
Format/Info                    : Audio Coding 3
Mode extension                 : CM (complete main)
Format settings, Endianness    : Big
Codec ID                       : A_AC3
Duration                       : 1 h 52 min
Bit rate mode                  : Constant
Bit rate                       : 192 kb/s
Channel(s)                     : 2 channels
Channel positions              : Front: L R
Sampling rate                  : 44.1 kHz
Frame rate                     : 28.711 FPS (1536 spf)
Compression mode               : Lossy
Delay relative to video        : -88 ms
Stream size                    : 155 MiB (22%)
Language                       : Spanish
Default                        : Yes
Forced                         : No





















Alicia Atravez del Espejo [2016] 720p [X265]Latino
15 Puntos Score: 7.5/10
Visitas: 3031 Favoritos: 4
Ver los usuarios que votaron...
14 Comentarios Alicia Atravez del Espejo [2016] 720p [X265]Latino
amigo por favorpodrias no se, sipuedas, pasarme los links por aparte?? tu sabes la limitacion q pone mega es castrozaaaaa se que es menos de 1 giga pero siempre me marca q ya rebase el limite, esperopuedas ayudarme amigo. gracias.
XD si tambien me podrias pasar los links por MP por fa Gracias
descargando..... gracias por compartir
Muchas Gracias Brother,, se le agradece mucho  
ya provaste con hola vpn? o con algun gestor?
Cita hiraminm: Mostrar
@hiraminm probaste agregando tu cuenta al gestor? Yo uso mi cuenta free de mega en mipony sin problema, sin limites.
@Gil_19 NOA MIGO ESE GESTOR NI LO CONOCIA PERO LO INTENTARE... EN JDO, LOPROBE PERO COPIANDO LINK PERO NI ASI! intentare ese gracias bro.
 
@xavimar enpony tampocopude amigo y en jdo pues ni cpinado los link lospude sacar de ahi... esperopuedan ayudarme de verdad pasando los links ... gracias.
@hiraminm pasame algun correo o algo para mandartelos, no se si los pueda poner aqui en los comentarios
Muchas Gracias por el Porte luis_f
Este post esta cerrado y no se permiten comentarios.
Para dejar un comentario Registrate! o.. eres ya usuario? Accede!