Oops.. Este post tiene los enlaces eliminados!

Identi revisa las denuncias de los usuarios en busca de enlaces eliminados que no dejan descargar los archivos, este mensaje te informa que este post que estas viendo tiene los enlaces eliminados.

Usa el Buscador

Por favor, te recomendamos que uses el buscador para encontrar más alternativas.

Gotham Season3 episodio 01 [hdtv] Mega Subs/lat

  • Categoría: Reciclaje
  • Publicado hace más de 2 meses
Gotham Season3 episodio 01 [Hdtv] Mega Subs/latino












La tercera temporada de Gotham, subtitulada como Mad City (Ciudad demente), fue anunciada el 16 de marzo de 2016 [1]. Su estreno será el día 19 de septiembre de 2016 en Estados Unidos.


Sinopsis

La historia de orígenes continúa con la tercera temporada de GOTHAM, y las apuestas están más altas que nunca, ya que Supervillanos más ambiciosos y depravados son introducidos y una nueva formación de alianzas sacude la lucha de poder por la ciudad.

La tercera temporada desvelará lo que hay tras la cortina de la infame organización criminal conocida como la Corte de los Búhos. Con los fugados de de Indian Hill a la huida, James Gordon (Ben McKenzie) debe tomar cartas en el asunto y convertirse en un cazarrecompensas en Gotham. Él convierte en su misión encontrar a Hugo Strange (estrella invitada Bd Wong), la mente maestra tras los horribles experimentos de Indian Hill, y Fish Mooney (estrella invitada Jada Pinkett Smith), uno de los especímenes de Strange. Mientras tanto, el Detective del DPGC Harvey Bullock (Donal Logue) y el Capitá Nathaniel Barnes (Michael Chiklis) permanecen al frente de la batalla contra el crimen en una ciudad controlada por los monstruos. Además, Bruce Wayne (David Mazouz), con la ayuda de su fiel mayordomo y mentor, Alfred Pennyworth (Sean Pertwee), y el ex-empleado de Wayne Enterprises, Lucius Fox (Chris Chalk), descubre que todavía quedan más secretos por desvelar sobre la muerte de sus padres.



Gotham.season3 episodio01.hdtv (1).mkv

Format                         : Matroska
Format version                 : Version 4 / Version 2
File size                      : 254 MiB
Duration                       : 44 min
Overall bit rate               : 804 kb/s
Encoded date                   : UTC 2016-09-21 15:05:22
Writing application            : mkvmerge v8.3.0 ('Over the Horizon') 64bit
Writing library                : libebml v1.3.1 + libmatroska v1.4.2

Video
ID                             : 1
Format                         : AVC
Format/Info                    : Advanced Video Codec
Format profile                 : [email protected]
Format settings, CABAC         : Yes
Format settings, ReFrames      : 5 frames
Codec ID                       : V_MPEG4/ISO/AVC
Duration                       : 44 min
Bit rate                       : 674 kb/s
Width                          : 720 pixels
Height                         : 404 pixels

Display aspect ratio           : 16:9
Frame rate mode                : Constant
Frame rate                     : 23.976 (24000/1001) FPS
Color space                    : YUV
Chroma subsampling             : 4:2:0
Bit depth                      : 8 bits
Scan type                      : Progressive
Bits/(Pixel*Frame)             : 0.097
Stream size                    : 213 MiB (84%)
Writing library                : x264 core 148 r2705 3f5ed56
Language                       : English
Default                        : Yes
Forced                         : No
Color range                    : Limited
Matrix coefficients            : BT.709

Audio
ID                             : 2
Format                         : AAC
Format/Info                    : Advanced Audio Codec
Format profile                 : LC
Codec ID                       : A_AAC
Duration                       : 44 min
Bit rate                       : 127 kb/s
Channel(s)                     : 2 channels
Channel positions              : Front: L R
Sampling rate                  : 48.0 kHz
Frame rate                     : 46.875 FPS (1024 spf)
Compression mode               : Lossy
Delay relative to video        : 9 ms
Stream size                    : 40.2 MiB (16%)
Default                        : Yes
Forced                         : No






















Gotham Season3 episodio 01 [hdtv] Mega Subs/lat
23 Puntos Score: 7.7/10
Visitas: 815 Favoritos: 1
Ver los usuarios que votaron...
3 Comentarios Gotham Season3 episodio 01 [hdtv] Mega Subs/lat
Amo esta serie, muchas gracias
Gracias, grandiosa serie!
Este post esta cerrado y no se permiten comentarios.
Para dejar un comentario Registrate! o.. eres ya usuario? Accede!