Oops.. Este post tiene los enlaces eliminados!

Identi revisa las denuncias de los usuarios en busca de enlaces eliminados que no dejan descargar los archivos, este mensaje te informa que este post que estas viendo tiene los enlaces eliminados.

Usa el Buscador

Por favor, te recomendamos que uses el buscador para encontrar más alternativas.

Dark Skies [2013] BRRip XviD Dual Latino/Ing Mega

  • Categoría: Reciclaje
  • Publicado hace más de 2 meses
Dark Skies [2013] BRRip XviD Dual Latino/Ing Mega












Título original:    Dark Skies
Año:    2013
Duración:    95 min.
País:    Estados Unidos Estados Unidos
Director:    Scott Stewart
Guión:    Scott Stewart
Música:    Joseph Bishara
Fotografía:    David Boyd
Reparto:    Keri Russell, Josh Hamilton, Dakota Goyo, Kadan Rockett, J.K. Simmons, Myndy Crist, L.J. Benet, Rich Hutchman, Annie Thurman, Jake Brennan
Productora:    Dimension Films / Alliance Films / Blumhouse Films
Género:    Ciencia ficción. Intriga. Terror | Sobrenatural. Extraterrestres
Grupos:    Blumhouse Productions Novedad

Sinopsis

    Los Barret son una familia que vive en los suburbios. Lacey y Daniel (Keri Russell y Josh Hamilton) presencian una serie de extraños y perturbadores acontecimientos que afectan a su familia, a su seguridad y a su tranquilidad. Cuando descubren que ellos y sus dos hijos son el objetivo de una inimaginable y terrorífica presencia, ambos tendrán que hacer todo lo que esté en sus manos para resolver este oscuro misterio.


MEDIA INFO


Dark Skies 2013 BRRip XviD.mkv

Format                         : Matroska
Format version                 : Version 4 / Version 2
File size                      : 828 MiB
Duration                       : 1 h 37 min

Overall bit rate               : 1 192 kb/s
Encoded date                   : UTC 2015-03-25 14:11:16
Writing application            : mkvmerge v6.9.1 ('Blue Panther') 64bit built on Apr 18 2014 18:23:38
Writing library                : libebml v1.3.0 + libmatroska v1.4.1

Video
ID                             : 1
Format                         : MPEG-4 Visual
Format profile                 : Advanced [email protected]
Format settings, BVOP          : 2
Format settings, QPel          : No
Format settings, GMC           : No warppoints
Format settings, Matrix        : Default (H.263)
Muxing mode                    : Packed bitstream
Codec ID                       : V_MS/VFW/FOURCC / XVID
Codec ID/Hint                  : XviD
Duration                       : 1 h 37 min
Bit rate                       : 848 kb/s
Width                          : 640 pixels
Height                         : 272 pixels

Display aspect ratio           : 2.35:1
Frame rate mode                : Constant
Frame rate                     : 23.976 (24000/1001) FPS
Color space                    : YUV
Chroma subsampling             : 4:2:0
Bit depth                      : 8 bits
Scan type                      : Progressive
Compression mode               : Lossy
Bits/(Pixel*Frame)             : 0.203
Stream size                    : 589 MiB (71%)
Writing library                : XviD 64
Default                        : Yes
Forced                         : No

Audio #1
ID                             : 2
Format                         : AC-3
Format/Info                    : Audio Coding 3
Mode extension                 : CM (complete main)
Format settings, Endianness    : Big
Codec ID                       : A_AC3
Duration                       : 1 h 37 min
Bit rate mode                  : Constant
Bit rate                       : 192 kb/s
Channel(s)                     : 2 channels
Channel positions              : Front: L R
Sampling rate                  : 48.0 kHz
Frame rate                     : 31.250 FPS (1536 spf)
Compression mode               : Lossy
Stream size                    : 133 MiB (16%)
Language                       : Spanish
Default                        : Yes
Forced                         : No

Audio #2
ID                             : 3
Format                         : MPEG Audio
Format version                 : Version 1
Format profile                 : Layer 3
Mode                           : Joint stereo
Mode extension                 : MS Stereo
Codec ID                       : A_MPEG/L3
Codec ID/Hint                  : MP3
Duration                       : 1 h 37 min
Bit rate mode                  : Constant
Bit rate                       : 128 kb/s
Channel(s)                     : 2 channels
Sampling rate                  : 44.1 kHz
Compression mode               : Lossy
Stream size                    : 88.9 MiB (11%)
Writing library                : LAME3.98
Language                       : English
Default                        : No
Forced                         : No












Dark Skies [2013] BRRip XviD Dual Latino/Ing Mega
30 Puntos Score: 10/10
Visitas: 1110 Favoritos: 1
Ver los usuarios que votaron...
3 Comentarios Dark Skies [2013] BRRip XviD Dual Latino/Ing Mega
Diez pesos para ti, GRACIAS.
@duqueblanc gracias amigo por los puntos y x comentar saludos
excelente ...mil gracias ...
Este post esta cerrado y no se permiten comentarios.
Para dejar un comentario Registrate! o.. eres ya usuario? Accede!