Oops.. Este post tiene los enlaces eliminados!

Identi revisa las denuncias de los usuarios en busca de enlaces eliminados que no dejan descargar los archivos, este mensaje te informa que este post que estas viendo tiene los enlaces eliminados.

Usa el Buscador

Por favor, te recomendamos que uses el buscador para encontrar más alternativas.

Nacho Libre [2006] 720p BRRip x264 Latino Mega

  • Categoría: Reciclaje
  • Publicado hace más de 2 meses
Nacho Libre [2006] 720p BRRip x264 Latino Mega







Título original:    Nacho Libre
Año:    2006
Duración:    100 min.
País:    Estados Unidos Estados Unidos
Director:    Jared Hess
Guión:    Jared Hess, Mike White, Jerusha Hess
Música:    Danny Elfman
Fotografía:    Xavier Pérez Grobet
Reparto:    Jack Black, Héctor Jiménez, Ana de la Reguera, Richard Montoya, Darius Rose, Lisa Owen, Rafael Montalvo, Mike Ching
Productora:    Paramount Pictures
Género:    Comedia | Wrestling/Lucha libre

Sinopsis

    Nacho es un hombre sin talento. Se crió en un monasterio en México del que ahora es el cocinero, pero no parece encajar. Nacho quiere a los huérfanos para los que cocina, pero todo lo que hace sabe fatal. Según él, porque tiene una pésima materia prima. Se da cuenta de que debe ingeniárselas para cocinar algo mejor para los pobres huérfanos (y de paso, impresionar a la preciosa hermana Encarnación). Se le ocurre la idea de ganar dinero convirtiéndose en luchador de lucha libre y descubre que tiene un don innato. Se une a un compañero poco convencional, Esqueleto, un hombre delgadísimo, y por primera vez siente que tiene un objetivo en la vida. Pero las monjas del monasterio están totalmente en contra de la lucha libre y a Nacho no le queda más remedio que llevar una doble vida. Esconde su identidad detrás de una máscara azul y se enfrenta a los luchadores más famosos de México, decidido a que los huérfanos vivan mejor.



Media Info

Nacho.Libre.2006.720p.BRRip.mkv

Format                         : Matroska
Format version                 : Version 4 / Version 2
File size                      : 820 MiB
Duration                       : 1 h 32 min

Overall bit rate               : 1 244 kb/s
Movie name                     : Nacho.Libre.2006.720p.BRRip
Encoded date                   : UTC 2016-09-18 15:11:08
Writing application            : mkvmerge v8.3.0 ('Over the Horizon') 64bit
Writing library                : libebml v1.3.1 + libmatroska v1.4.2

Video
ID                             : 1
Format                         : AVC
Format/Info                    : Advanced Video Codec
Format profile                 : [email protected]
Format settings, CABAC         : Yes
Format settings, ReFrames      : 9 frames
Codec ID                       : V_MPEG4/ISO/AVC
Duration                       : 1 h 32 min
Bit rate                       : 1 116 kb/s
Width                          : 1 280 pixels
Height                         : 714 pixels

Display aspect ratio           : 16:9
Frame rate mode                : Constant
Frame rate                     : 23.976 (24000/1001) FPS
Color space                    : YUV
Chroma subsampling             : 4:2:0
Bit depth                      : 8 bits
Scan type                      : Progressive
Bits/(Pixel*Frame)             : 0.051
Stream size                    : 735 MiB (90%)
Writing library                : x264 core 146 r2538 121396c
Default                        : Yes
Forced                         : No

Audio
ID                             : 2
Format                         : MPEG Audio
Format version                 : Version 1
Format profile                 : Layer 3
Codec ID                       : A_MPEG/L3
Codec ID/Hint                  : MP3
Duration                       : 1 h 32 min
Bit rate mode                  : Constant
Bit rate                       : 128 kb/s
Channel(s)                     : 2 channels
Sampling rate                  : 44.1 kHz
Frame rate                     : 38.281 FPS (1152 spf)
Compression mode               : Lossy
Delay relative to video        : 26 ms
Stream size                    : 84.3 MiB (10%)
Writing library                : LAME3.92
Default                        : Yes
Forced                         : No














Nacho Libre [2006] 720p BRRip x264 Latino Mega
60 Puntos Score: 10/10
Visitas: 737 Favoritos: 3
Ver los usuarios que votaron...
12 Comentarios Nacho Libre [2006] 720p BRRip x264 Latino Mega
es dual o solo latino
Mjuy bueno Jack Black. A ver qué tal esta peli que se ve comiquísima    Muchas gracias  
@watchsdog SOLO latino
@akula1997 si amigo esta muy chistosa   gracias por puntuar
Muchas gracias  
Gracias por el aporte. Bajando..
gracias buen hombre
@loquillo1 @lksmatt de nada que la disfruten
@luar66 saludos boricua    
@luis_f El audio esta mal ,como adelantado un poco.
Gracias por compartir esta muy chispa está peli saludos
el audio esta mal sincronizado
@optimus100 si amigo aplica un delay de 500 ms y queda bien, lo puedes hacer con mkvmergue
Este post esta cerrado y no se permiten comentarios.
Para dejar un comentario Registrate! o.. eres ya usuario? Accede!