Oops.. Este post tiene los enlaces eliminados!

Identi revisa las denuncias de los usuarios en busca de enlaces eliminados que no dejan descargar los archivos, este mensaje te informa que este post que estas viendo tiene los enlaces eliminados.

Usa el Buscador

Por favor, te recomendamos que uses el buscador para encontrar más alternativas.

Wild Hogs [2007] 720p Brrip x264 Latino Mega

  • Categoría: Reciclaje
  • Publicado hace más de 2 meses
Wild Hogs [2007] 720p Brrip x264 Latino Mega








Título original:Wild Hogs
Año:2007
Duración:99 min.
País:Estados Unidos Estados Unidos
Director:Walt Becker
Guión:Brad Copeland
Música:Teddy Castellucci
Fotografía:Robbie Greenberg
Reparto:Tim Allen, John Travolta, Martin Lawrence, William H. Macy, Ray Liotta, Marisa Tomei, Kevin Durand, M.C. Gainey, Jill Hennessy, Dominic Janes, Tichina Arnold, Drew Sidora, Stephen Tobolowsky, Peter Fonda, Stephanie Skewes, Liezl Carstens
Productora:Touchstone Pictures
Género:Comedia. Acción | Road Movie. Motos. Amistad


Sinopsis

Cuatro amigos de mediana edad (Travolta, Allen, Lawrence y Macy), entusiastas de las motos, deciden huir de la rutina de la gran ciudad y emprender un viaje liberador recorriendo Estados Unidos en sus motos.


MEDIA INFO

Wild.Hogs.2007.720p.Brrip.x264.mkv

Format                         : Matroska
Format version                 : Version 4 / Version 2
File size                      : 734 MiB
Duration                       : 1 h 39 min

Overall bit rate               : 1 029 kb/s
Movie name                     : Luis_f para Identi.li
Encoded date                   : UTC 2016-09-18 19:46:00
Writing application            : mkvmerge v8.3.0 ('Over the Horizon') 64bit
Writing library                : libebml v1.3.1 + libmatroska v1.4.2

Video
ID                             : 1
Format                         : AVC
Format/Info                    : Advanced Video Codec
Format profile                 : [email protected]
Format settings, CABAC         : Yes
Format settings, ReFrames      : 4 frames
Codec ID                       : V_MPEG4/ISO/AVC
Duration                       : 1 h 39 min
Bit rate                       : 900 kb/s
Width                          : 1 280 pixels
Height                         : 544 pixels

Display aspect ratio           : 2.35:1
Frame rate mode                : Constant
Frame rate                     : 23.976 (24000/1001) FPS
Color space                    : YUV
Chroma subsampling             : 4:2:0
Bit depth                      : 8 bits
Scan type                      : Progressive
Bits/(Pixel*Frame)             : 0.054
Stream size                    : 641 MiB (87%)
Writing library                : x264 core 148
Forced                         : No

Audio
ID                             : 2
Format                         : MPEG Audio
Format version                 : Version 1
Format profile                 : Layer 3
Mode                           : Joint stereo
Mode extension                 : MS Stereo
Codec ID                       : A_MPEG/L3
Codec ID/Hint                  : MP3
Duration                       : 1 h 39 min
Bit rate mode                  : Constant
Bit rate                       : 128 kb/s
Channel(s)                     : 2 channels
Sampling rate                  : 48.0 kHz
Frame rate                     : 41.667 FPS (1152 spf)
Compression mode               : Lossy
Stream size                    : 91.2 MiB (12%)
Default                        : Yes
Forced                         : No


















Wild Hogs [2007] 720p Brrip x264 Latino Mega
35 Puntos Score: 8.8/10
Visitas: 971 Favoritos: 0
Ver los usuarios que votaron...
2 Comentarios Wild Hogs [2007] 720p Brrip x264 Latino Mega
Excelente   Gracias !
Otro buen aporte muchas gracias que estés bien
Este post esta cerrado y no se permiten comentarios.
Para dejar un comentario Registrate! o.. eres ya usuario? Accede!