Oops.. Este post tiene los enlaces eliminados!

Identi revisa las denuncias de los usuarios en busca de enlaces eliminados que no dejan descargar los archivos, este mensaje te informa que este post que estas viendo tiene los enlaces eliminados.

Usa el Buscador

Por favor, te recomendamos que uses el buscador para encontrar más alternativas.

Una Noche fuera de Serie[2010] Dvdrip Latino Mega

  • Categoría: Reciclaje
  • Publicado hace más de 2 meses
Una Noche fuera de Serie[2010] Dvdrip Latino Mega








Título original: Date Night
Año:2010
Duración:88 min.
País:Estados Unidos Estados Unidos
Director:Shawn Levy
Guión:Josh Klausner
Música:Christophe Beck
Fotografía: Dean Semler
Reparto:Steve Carell, Tina Fey, Mark Wahlberg, James Franco, Taraji P. Henson, Jimmi Simpson, Kristen Wiig, Leighton Meester, Mark Ruffalo, Mila Kunis, Ray Liotta, William Fichtner, Jon Bernthal, Gal Gadot
Productora:Twentieth Century-Fox Film Corporation / 21 Laps Entertainment
Género:Romance. Comedia. Acción | Comedia romántica

Sinopsis

Phil (Steve Carell) y Claire Foster (Tina Fey) son un matrimonio aparentemente feliz que ve como sus mejores amigos se separan después de una vida muy similar a la suya. En un intento por escapar de su anodina y rutinaria vida, Phil lleva a cenar a Claire a un caro restaurante de Manhattan, en el que, sin embargo, no ha hecho reserva. Cuando los Tripplehorn son llamados a ocupar su mesa y no aparecen, Phil y Claire se hacen pasar por ellos; comienza así una noche de infortunios como consecuencia de haber adoptado una falsa identidad.




MEDIA INFO


Una.noche.fuera.de.serie.dvdrip.avi
Format                         : AVI
Format/Info                    : Audio Video Interleave
File size                      : 696 MiB
Duration                       : 1 h 27 min

Overall bit rate               : 1 107 kb/s
Writing application            : VirtualDubMod 1.5.4.1 (build 2178/release)
Writing library                : VirtualDubMod build 2178/release

Video
ID                             : 0
Format                         : MPEG-4 Visual
Format profile                 : Advanced [email protected]
Format settings, BVOP          : No
Format settings, QPel          : No
Format settings, GMC           : No warppoints
Format settings, Matrix        : Custom
Codec ID                       : XVID
Codec ID/Hint                  : XviD
Duration                       : 1 h 27 min
Bit rate                       : 988 kb/s
Width                          : 624 pixels
Height                         : 272 pixels

Display aspect ratio           : 2.25:1
Frame rate                     : 23.976 (23976/1000) FPS
Color space                    : YUV
Chroma subsampling             : 4:2:0
Bit depth                      : 8 bits
Scan type                      : Progressive
Compression mode               : Lossy
Bits/(Pixel*Frame)             : 0.243
Stream size                    : 621 MiB (89%)
Writing library                : XviD 1.2.1 (UTC 2008-12-04)

Audio
ID                             : 1
Format                         : MPEG Audio
Format version                 : Version 1
Format profile                 : Layer 3
Mode                           : Joint stereo
Mode extension                 : MS Stereo
Codec ID                       : 55
Codec ID/Hint                  : MP3
Duration                       : 1 h 27 min
Bit rate mode                  : Constant
Bit rate                       : 112 kb/s
Channel(s)                     : 2 channels
Sampling rate                  : 44.1 kHz
Compression mode               : Lossy
Stream size                    : 70.3 MiB (10%)
Alignment                      : Split accross interleaves
Interleave, duration           : 84  ms (2.00 video frames)
Interleave, preload duration   : 500  ms
Writing library                : LAME3.98r
Encoding settings              : -m j -V 4 -q 2 -lowpass 15.6 -b 112
Language                       : Español



















Una Noche fuera de Serie[2010] Dvdrip Latino Mega
40 Puntos Score: 10/10
Visitas: 889 Favoritos: 1
Ver los usuarios que votaron...
9 Comentarios Una Noche fuera de Serie[2010] Dvdrip Latino Mega
@India1414 aki esta amiga espero sea de tu agrado tambien tengo la version 720p pero en ingles subtitulada[español] tu diras si la kieres.  
Gracias compañero!!  
@luis_f hay una version web-dl que el audio de esta version queda perfecto con solo -1500ms asi queda dual
@luis_f con gusto amigo http://tehparadox.com/forum/f125/date-night-2010-1080p-web-12056368/

son links de uploaded que lastimosamente aca no permiten
@olwing amigo aunque tu intencion es buena con tu compañero estas haciendo spam y te pueden banear por ello
Gracias hace tiempo queria verla espero no me decepcione
Este post esta cerrado y no se permiten comentarios.
Para dejar un comentario Registrate! o.. eres ya usuario? Accede!