Oops.. Este post tiene los enlaces eliminados!

Identi revisa las denuncias de los usuarios en busca de enlaces eliminados que no dejan descargar los archivos, este mensaje te informa que este post que estas viendo tiene los enlaces eliminados.

Usa el Buscador

Por favor, te recomendamos que uses el buscador para encontrar más alternativas.

Mis dobles, mi mujer y yo[1996]Dvdrip[avi] Mega

  • Categoría: Reciclaje
  • Publicado hace más de 2 meses
Mis dobles, mi mujer y yo
[1996] Dvdrip Avi Mega





Título original:   Multiplicity
Año:   1996
Duración:   117 min.
País:   Estados Unidos Estados Unidos
Director:   Harold Ramis
Guión:   Chris Miller, Mary Hale, Harold Ramis, Lowell Ganz, Babaloo Mandel
Música:   George Fenton
Fotografía:   Laszlo Kovacs
Reparto:   Michael Keaton, Andie MacDowell, Harris Yulin, Richard Masur, Eugene Levy, Zack Duhame, Katie Schlossberg, Ann Cusack
Productora:   Columbia Pictures
Género:   Comedia. Ciencia ficción. Romance | Cine familiar

Sinopsis

    Doug Kinney tiene un serio problema: no dispone de tiempo suficiente para dedicarse a su trabajo, a su esposa, a su hija e, incluso, a sí mismo. Conciliar su vida personal y profesional se ha transformado en algo imposible. Un experto en genética, el doctor Owen Leeds, le ofrecerá la solución definitiva a su problema: la clonación.


MEDIA INFO


Multiplicity.1996.avi
Format                         : AVI
Format/Info                    : Audio Video Interleave
File size                      : 906 MiB
Duration                       : 1 h 53 min

Overall bit rate               : 1 118 kb/s
Writing library                : VirtualDubMod build 2540/release

Video
ID                             : 0
Format                         : MPEG-4 Visual
Format profile                 : Advanced [email protected]
Format settings, BVOP          : 2
Format settings, QPel          : No
Format settings, GMC           : No warppoints
Format settings, Matrix        : Default (H.263)
Muxing mode                    : Packed bitstream
Codec ID                       : XVID
Codec ID/Hint                  : XviD
Duration                       : 1 h 53 min
Bit rate                       : 788 kb/s
Width                          : 720 pixels

Height                         : 304 pixels
Display aspect ratio           : 2.35:1
Frame rate                     : 23.976 (23976/1000) FPS
Color space                    : YUV
Chroma subsampling             : 4:2:0
Bit depth                      : 8 bits
Scan type                      : Progressive
Compression mode               : Lossy
Bits/(Pixel*Frame)             : 0.150
Stream size                    : 639 MiB (71%)
Writing library                : XviD 64

Audio
ID                             : 1
Format                         : MPEG Audio
Format version                 : Version 1
Format profile                 : Layer 3
Mode                           : Joint stereo
Mode extension                 : MS Stereo
Codec ID                       : 55
Codec ID/Hint                  : MP3
Duration                       : 1 h 53 min
Bit rate mode                  : Constant
Bit rate                       : 320 kb/s
Channel(s)                     : 2 channels
Sampling rate                  : 48.0 kHz
Compression mode               : Lossy
Delay relative to video        : 2 ms
Stream size                    : 259 MiB (29%)
Alignment                      : Split accross interleaves
Interleave, duration           : 42  ms (1.00 video frame)
Interleave, preload duration   : 500  ms














Mis dobles, mi mujer y yo[1996]Dvdrip[avi] Mega
40 Puntos Score: 6.7/10
Visitas: 1150 Favoritos: 3
Ver los usuarios que votaron...
9 Comentarios Mis dobles, mi mujer y yo[1996]Dvdrip[avi] Mega
la vi hace muchos años... es un cago de risa la pelicula. si quieren pasar un buen rato no duden en descargarla. repito MUY BUENA. saludos y gracias x el aporte. te dejo algunos chelines.
Se ve interesante. Gracias!
Este post esta cerrado y no se permiten comentarios.
Para dejar un comentario Registrate! o.. eres ya usuario? Accede!