Oops.. Este post tiene los enlaces eliminados!

Identi revisa las denuncias de los usuarios en busca de enlaces eliminados que no dejan descargar los archivos, este mensaje te informa que este post que estas viendo tiene los enlaces eliminados.

Usa el Buscador

Por favor, te recomendamos que uses el buscador para encontrar más alternativas.

La noche de la expiación[2013][The Purge] Lat/Mega

  • Categoría: Reciclaje
  • Publicado hace más de 2 meses
La noche de la expiación [The Purge] brrip [2013] Latino Mega








Título original:    The Purge
Año:    2013
Duración:    86 min.
País:    Estados Unidos Estados Unidos
Director:    James DeMonaco
Guión:    James DeMonaco
Música:    Nathan Whitehead
Fotografía:    Jacques Jouffret
Reparto:    Ethan Hawke, Lena Headey, Max Burkholder, Adelaide Kane, Rhys Wakefield, Edwin Hodge, Tony Oller, Tom Yi, Tyler Jaye, Alicia Vela-Bailey, John Weselcouch
Productora:    Universal Pictures / Blumhouse Productions / Platinum Dunes / Why Not Productions
Género:    Thriller. Terror | Thriller futurista. Distopía. Crimen
Grupos:    The Purge | Blumhouse Productions Novedad


Sinopsis

   Año 2022. En una futura sociedad distópica, el régimen político, llamado Nueva Fundación de los padres de América, ha implantado una medida catárquica ante la violencia campante y las cárceles saturadas: la "purga anual", según la cual una noche al año se puede cometer cualquier clase de crimen, incluso el asesinato, sin tener que responder ante la justicia. La violencia se desata durante esas 12 horas, y los individuos se desfogan, imperando la calma el resto del año. Horas antes de que comience la purga anual, el vendedor de sistemas de seguridad James Sandin regresa a su casa en un lujoso suburbio de Los Angeles junto a su esposa María y sus dos hijos, Zoey y Charlie. Lo que no contaba esa famillia es que poco tiempo después de comenzar la noche un extraño llame a la puerta.






The.Purge.2013.720p.BluRay.x264.mkv
Format                         : Matroska
Format version                 : Version 4 / Version 2
File size                      : 813 MiB
Duration                       : 1 h 25 min
Overall bit rate               : 1 332 kb/s
Encoded date                   : UTC 2016-09-12 18:31:16
Writing application            : mkvmerge v8.3.0 ('Over the Horizon') 64bit
Writing library                : libebml v1.3.1 + libmatroska v1.4.2

Video
ID                             : 1
Format                         : AVC
Format/Info                    : Advanced Video Codec
Format profile                 : [email protected]
Format settings, CABAC         : Yes
Format settings, ReFrames      : 5 frames
Codec ID                       : V_MPEG4/ISO/AVC
Duration                       : 1 h 25 min
Bit rate                       : 1 044 kb/s
Width                          : 1 280 pixels
Height                         : 536 pixels
Display aspect ratio           : 2.40:1
Frame rate mode                : Constant
Frame rate                     : 23.976 (24000/1001) FPS
Original frame rate            : 23.976 (23976/1000) FPS
Color space                    : YUV
Chroma subsampling             : 4:2:0
Bit depth                      : 8 bits
Scan type                      : Progressive
Bits/(Pixel*Frame)             : 0.063
Stream size                    : 637 MiB (78%)
Writing library                : x264 core 135 r2 f0c1c53
Default                        : Yes
Forced                         : No
Color range                    : Limited
Color primaries                : BT.709
Matrix coefficients            : BT.709

Audio #1
ID                             : 2
Format                         : AC-3
Format/Info                    : Audio Coding 3
Mode extension                 : CM (complete main)
Format settings, Endianness    : Big
Codec ID                       : A_AC3
Duration                       : 1 h 25 min
Bit rate mode                  : Constant
Bit rate                       : 192 kb/s
Channel(s)                     : 2 channels
Channel positions              : Front: L R
Sampling rate                  : 44.1 kHz
Frame rate                     : 28.711 FPS (1536 spf)
Compression mode               : Lossy
Stream size                    : 117 MiB (14%)
Language                       : Spanish
Default                        : Yes
Forced                         : No

Audio #2
ID                             : 3
Format                         : AAC
Format/Info                    : Advanced Audio Codec
Format profile                 : LC
Codec ID                       : A_AAC
Duration                       : 1 h 25 min
Bit rate                       : 93.8 kb/s
Channel(s)                     : 2 channels
Channel positions              : Front: L R
Sampling rate                  : 48.0 kHz
Frame rate                     : 46.875 FPS (1024 spf)
Compression mode               : Lossy
Stream size                    : 57.2 MiB (7%)
Language                       : English
Default                        : No
Forced                         : No













La noche de la expiación[2013][The Purge] Lat/Mega
17 Puntos Score: 5.7/10
Visitas: 1009 Favoritos: 2
Ver los usuarios que votaron...
5 Comentarios La noche de la expiación[2013][The Purge] Lat/Mega
no las he visto dicen que estan buenas,gracias
Ya la vi pero no la tengo en buena calidad, gracias por el aporte   @marlorambo Buenisima la peli
excelente aporte amigo ojala pudieras subir las otras  
Este post esta cerrado y no se permiten comentarios.
Para dejar un comentario Registrate! o.. eres ya usuario? Accede!