Oops.. Este post tiene los enlaces eliminados!

Identi revisa las denuncias de los usuarios en busca de enlaces eliminados que no dejan descargar los archivos, este mensaje te informa que este post que estas viendo tiene los enlaces eliminados.

Usa el Buscador

Por favor, te recomendamos que uses el buscador para encontrar más alternativas.

The Money Pit [Hogar dulce Hogar] [1986] 720p Mega

  • Categoría: Reciclaje
  • Publicado hace más de 2 meses
The Money Pit [Hogar dulce Hogar] [1986] 720p Dual Mega








Título original: The Money Pit
Año: 1986
Duración: 90 min.
País: Estados Unidos Estados Unidos
Director: Richard Benjamin
Guión: David Giler
Música: Michel Colombier
Fotografía: Gordon Willis
Reparto: Tom Hanks, Shelley Long, Alexander Godunov, Maureen Stapleton, Joe Mantegna, Philip Bosco, Josh Mostel
Productora:  Amblin Entertainment / U-Drive Productions / Universal Pictures
Género:  Comedia

Sinopsis

   Anna, una atractiva violinista, vive provisionalmente con su novio Walter en el apartamento de su exmarido. Cuando éste descubre la situación, la pareja se ve obligada a buscar otra vivienda. Un amigo de Walter, que es agente de la propiedad, le proporciona una auténtica “ganga” en las afueras de la ciudad.






The.Money.Pit.1986.720p.mkv

Format                         : Matroska
Format version                 : Version 4 / Version 2
File size                      : 787 MiB
Duration                       : 1 h 30 min
Overall bit rate               : 1 210 kb/s
Encoded date                   : UTC 2016-09-07 14:15:22
Writing application            : mkvmerge v8.3.0 ('Over the Horizon') 64bit
Writing library                : libebml v1.3.1 + libmatroska v1.4.2

Video
ID                             : 1
Format                         : AVC
Format/Info                    : Advanced Video Codec
Format profile                 : [email protected]
Format settings, CABAC         : Yes
Format settings, ReFrames      : 4 frames
Codec ID                       : V_MPEG4/ISO/AVC
Duration                       : 1 h 30 min
Bit rate                       : 986 kb/s
Width                          : 1 280 pixels
Height                         : 696 pixels
Display aspect ratio           : 1.85:1
Frame rate mode                : Constant
Frame rate                     : 23.976 (24000/1001) FPS
Original frame rate            : 23.976 (23976/1000) FPS
Color space                    : YUV
Chroma subsampling             : 4:2:0
Bit depth                      : 8 bits
Scan type                      : Progressive
Bits/(Pixel*Frame)             : 0.046
Stream size                    : 641 MiB (81%)
Writing library                : x264 core 142 r2479 dd79a61
Matrix coefficients            : BT.709

Audio #1
ID                             : 2
Format                         : AC-3
Format/Info                    : Audio Coding 3
Mode extension                 : CM (complete main)
Format settings, Endianness    : Big
Codec ID                       : A_AC3
Duration                       : 1 h 30 min
Bit rate mode                  : Constant
Bit rate                       : 128 kb/s
Channel(s)                     : 2 channels
Channel positions              : Front: L R
Sampling rate                  : 44.1 kHz
Frame rate                     : 28.711 FPS (1536 spf)
Compression mode               : Lossy
Stream size                    : 83.2 MiB (11%)
Language                       : Spanish
Default                        : Yes
Forced                         : No

Audio #2
ID                             : 3
Format                         : AAC
Format/Info                    : Advanced Audio Codec
Format profile                 : LC
Codec ID                       : A_AAC
Duration                       : 1 h 30 min
Bit rate                       : 93.6 kb/s
Channel(s)                     : 2 channels
Channel positions              : Front: L R
Sampling rate                  : 48.0 kHz
Frame rate                     : 46.875 FPS (1024 spf)
Compression mode               : Lossy
Stream size                    : 60.9 MiB (8%)
Language                       : English
Default                        : No
Forced                         : No

Text
ID                             : 4
Format                         : UTF-8
Codec ID                       : S_TEXT/UTF8
Codec ID/Info                  : UTF-8 Plain Text
Duration                       : 1 h 26 min
Bit rate                       : 67 b/s
Count of elements              : 1129
Stream size                    : 42.4 KiB (0%)
Language                       : Spanish
Default                        : Yes
Forced                         : No













The Money Pit [Hogar dulce Hogar] [1986] 720p Mega
62 Puntos Score: 7.8/10
Visitas: 864 Favoritos: 1
Ver los usuarios que votaron...
8 Comentarios The Money Pit [Hogar dulce Hogar] [1986] 720p Mega
Gracias por compartir!!
gracias amigo puedes montar  esta película que se llama  yo mi mujer y mis otros yo
gracias... justo la andaba buscando en hd...
+6
@luis_f muchas Gracias, la andaba buscando hace como un mes y no la encontraba, me apoye en "Comunidades" y me guiaron a tu post, mañana me reporto con +10, ya que ahorita ando seco.
@luis_f muchas gracias amigo se agradece el aporte.
Este post esta cerrado y no se permiten comentarios.
Para dejar un comentario Registrate! o.. eres ya usuario? Accede!