Oops.. Este post tiene los enlaces eliminados!

Identi revisa las denuncias de los usuarios en busca de enlaces eliminados que no dejan descargar los archivos, este mensaje te informa que este post que estas viendo tiene los enlaces eliminados.

Usa el Buscador

Por favor, te recomendamos que uses el buscador para encontrar más alternativas.

La Secretaria [2002] Latino Brrip x264 [720p] Mega

  • Categoría: Reciclaje
  • Publicado hace más de 2 meses
La Secretaria [2002] Latino Brrip x264 [720p] Mega









Título original:Secretary
Año:2002
Duración:111 min.
País:Estados Unidos Estados Unidos
Director:Steven Shainberg
Guión:Erin Cressida Wilson
Música:Angelo Badalamenti
Fotografía:Steve Fierberg
Reparto:James Spader, Maggie Gyllenhaal, Jeremy Davies, Lesley Ann Warren, Stephen McHattie, Patrick Bauchau, Amy Locane, Jessica Tuck, Oz Perkins, Mary Joy, Michael Mantell
Productora: Double A Films. Distribuida por Lions Gate Films
Género:Comedia. Romance | Comedia negra. Trabajo/empleo. Cine independiente USA



Sinopsis

Lee Holloway (Maggie Gyllenhaal) tiene el peor de los currículum cuando decide solicitar un empleo de secretaria en el bufete de abogados de E. Edward Grey (James Spader). Basta con decir que acaba de salir de una institución psiquiátrica y que, tan sólo un día después de volver a estar con su disfuncional familia de barrio periférico, ha recaído ya en su hábito secreto e inconfesable. Pese a que nunca en su vida ha tenido trabajo, Lee resulta finalmente contratada por el Sr. Grey, un misterioso abogado. Al principio el trabajo parece normal: mecanografiar cartas, archivar documentos y hacer el café; pero Lee y el Sr. Grey no tardan en embarcarse en una relación mucho más estrecha e íntima; una relación que haría sonrojar a cualquier jefe de personal.



La Secretaria Latino [720p].mkv
Format                         : Matroska
Format version                 : Version 4 / Version 2
File size                      : 936 MiB
Duration                       : 1 h 51 min
Overall bit rate               : 1 178 kb/s

Video
ID                             : 1
Format                         : AVC
Format/Info                    : Advanced Video Codec
Codec ID                       : V_MPEG4/ISO/AVC
Duration                       : 1 h 51 min
Bit rate                       : 985 kb/s
Width                          : 1 280 pixels
Height                         : 720 pixels
Display aspect ratio           : 16:9
Frame rate                     : 23.976 (24000/1001) FPS
Color space                    : YUV
Chroma subsampling             : 4:2:0
Bit depth                      : 8 bits
Scan type                      : Progressive
Stream size                    : 765 MiB (82%)
Writing library                : x264 core 133 r2334 a3ac64b
Forced                         : No

Audio
ID                             : 2
Format                         : AC-3
Format/Info                    : Audio Coding 3
Mode extension                 : CM (complete main)
Format settings, Endianness    : Big
Codec ID                       : A_AC3
Duration                       : 1 h 51 min
Bit rate mode                  : Constant
Bit rate                       : 192 kb/s
Channel(s)                     : 2 channels
Channel positions              : Front: L R
Sampling rate                  : 48.0 kHz
Frame rate                     : 31.250 FPS (1536 spf)
Compression mode               : Lossy
Stream size                    : 153 MiB (16%)
Language                       : Spanish
Default                        : Yes
Forced                         : No

















La Secretaria [2002] Latino Brrip x264 [720p] Mega
73 Puntos Score: 8.1/10
Visitas: 2134 Favoritos: 11
Ver los usuarios que votaron...
14 Comentarios La Secretaria [2002] Latino Brrip x264 [720p] Mega
interesante peli
+10
gracias...la vere haver quetal...
genial aporte....eres un master.... descargada sin problemas..una consulta no tendrias la pelicula hysteria? desde ya muchas gracias  
gracias yo la tenia subtitulad y ahora en espanol,ya no me predre las buenas escenas
la 50 shades of grey de los 2000´s
gracias estoy seguro que es una buena peli para este fin de semana,saludos.
Gracias por compartir  
Brava la peli    Muchas gracias  
Este post esta cerrado y no se permiten comentarios.
Para dejar un comentario Registrate! o.. eres ya usuario? Accede!