Oops.. Este post tiene los enlaces eliminados!

Identi revisa las denuncias de los usuarios en busca de enlaces eliminados que no dejan descargar los archivos, este mensaje te informa que este post que estas viendo tiene los enlaces eliminados.

Usa el Buscador

Por favor, te recomendamos que uses el buscador para encontrar más alternativas.

Rapida y Mortal [1995] 720p BrRip X264 Latino Mega

  • Categoría: Reciclaje
  • Publicado hace más de 2 meses
Rapida y Mortal [1995] 720p BrRip X264 Latino Mega






Título original:  The Quick and the Dead
Año:  1995
Duración:  105 min.
País: Estados Unidos Estados Unidos
Director:  Sam Raimi
Guión: Simon Moore
Música: Alan Silvestri
Fotografía: Dante Spinotti
Reparto:  Sharon Stone, Gene Hackman, Russell Crowe, Leonardo DiCaprio, Kevin Conway, Lance Henriksen, Roberts Blossom, Gary Sinise, Keith David, Pat Hingle, Mark Boone Junior, Olivia Burnette, Woody Strode
Productora: TriStar Pictures
Género:  Western | Venganza

Sinopsis

    Ellen, una bella y misteriosa forastera, llega a una pequeña ciudad del Oeste y se inscribe en una peligrosa competición en la que pistoleros procedentes de todas partes arriesgan sus vidas a cambio de fama y dinero. Los motivos de Ellen son muy distintos: quiere vengarse de Herod, un hombre sin escrúpulos que domina la ciudad, por el daño que le hizo a su familia en otros tiempos



Rapida y Mortal [1995] 720p.BrRip.264.mkv
Format                         : Matroska
Format version                 : Version 4 / Version 2
File size                      : 753 MiB
Duration                       : 1 h 47 min
Overall bit rate               : 977 kb/s
Encoded date                   : UTC 2015-08-03 19:37:33
Writing application            : mkvmerge v7.9.0 ('Birds') 64bit
Writing library                : libebml v1.3.1 + libmatroska v1.4.2

Video
ID                             : 1
Format                         : AVC
Format/Info                    : Advanced Video Codec
Format profile                 : [email protected]
Format settings, CABAC         : Yes
Format settings, ReFrames      : 5 frames
Codec ID                       : V_MPEG4/ISO/AVC
Duration                       : 1 h 47 min
Bit rate                       : 752 kb/s
Width                          : 1 280 pixels
Height                         : 692 pixels
Display aspect ratio           : 1.85:1
Frame rate mode                : Constant
Frame rate                     : 23.976 (24000/1001) FPS
Color space                    : YUV
Chroma subsampling             : 4:2:0
Bit depth                      : 8 bits
Scan type                      : Progressive
Bits/(Pixel*Frame)             : 0.035
Stream size                    : 579 MiB (77%)
Writing library                : x264 core 114 r1924 08d04a4


Audio #1
ID                             : 2
Format                         : AC-3
Format/Info                    : Audio Coding 3
Mode extension                 : CM (complete main)
Format settings, Endianness    : Big
Codec ID                       : A_AC3
Duration                       : 1 h 47 min
Bit rate mode                  : Constant
Bit rate                       : 192 kb/s
Channel(s)                     : 2 channels
Channel positions              : Front: L R
Sampling rate                  : 48.0 kHz
Frame rate                     : 31.250 FPS (1536 spf)
Compression mode               : Lossy
Delay relative to video        : 8 ms
Stream size                    : 148 MiB (20%)
Language                       : Spanish
Default                        : Yes
Forced                         : No

Audio #2
ID                             : 3
Format                         : AAC
Format/Info                    : Advanced Audio Codec
Format profile                 : HE-AAC / LC
Codec ID                       : A_AAC
Duration                       : 1 h 47 min
Bit rate                       : 32.0 kb/s
Channel(s)                     : 2 channels
Channel positions              : Front: L R
Sampling rate                  : 48.0 kHz / 24.0 kHz
Frame rate                     : 23.438 FPS (1024 spf)
Compression mode               : Lossy
Stream size                    : 24.7 MiB (3%)
Language                       : English
Default                        : No
Forced                         : No
















Rapida y Mortal [1995] 720p BrRip X264 Latino Mega
66 Puntos Score: 8.3/10
Visitas: 1342 Favoritos: 5
Ver los usuarios que votaron...
10 Comentarios Rapida y Mortal [1995] 720p BrRip X264 Latino Mega
Se ve interesante.  

Salutes.
@MLPF gracias amigo x los puntos saludos  
Muchas gracias, te dejo mis últimos punticos de hoy, muy buena película  
Muchas gracias!!!  
Un verdadero clásico.
Este post esta cerrado y no se permiten comentarios.
Para dejar un comentario Registrate! o.. eres ya usuario? Accede!