Oops.. Este post tiene los enlaces eliminados!

Identi revisa las denuncias de los usuarios en busca de enlaces eliminados que no dejan descargar los archivos, este mensaje te informa que este post que estas viendo tiene los enlaces eliminados.

Usa el Buscador

Por favor, te recomendamos que uses el buscador para encontrar más alternativas.

El Renacido [2015] 720p Brrip [Latino] Mega

  • Categoría: Reciclaje
  • Publicado hace más de 2 meses
El Renacido [2015] 720p Brrip [Latino] Mega










Título original: The Revenant
Año:  2015
Duración: 156 min.
País: Estados Unidos Estados Unidos
Director: Alejandro González Iñárritu
Guión: Mark L. Smith, Alejandro González Iñárritu (Novela: Michael Punke)
Música: Carsten Nicolai, Ryûichi Sakamoto
Fotografía: Emmanuel Lubezki
Reparto: Leonardo DiCaprio, Tom Hardy, Domhnall Gleeson, Will Poulter, Forrest Goodluck, Paul Anderson, Kristoffer Joner, Joshua Burge, Duane Howard, Melaw Nakehk'o, Fabrice Adde, Arthur RedCloud, Christopher Rosamond, Robert Moloney, Lukas Haas, Brendan Fletcher, Tyson Wood, McCaleb Burnett
Productora:  New Regency / Anonymous Content / RatPac Entertainment; Distribuida por 20th Century Fox
Género:  Aventuras. Western | Siglo XIX. Naturaleza. Supervivencia. Venganza. Basado en hechos reales


Sinopsis

    Año 1823. En las profundidades de la América salvaje, el explorador Hugh Glass (Leonardo DiCaprio) participa junto a su hijo mestizo Hawk en una expedición de tramperos que recolecta pieles. Glass resulta gravemente herido por el ataque de un oso y es abandonado a su suerte por un traicionero miembro de su equipo, John Fitzgerald (Tom Hardy). Con la fuerza de voluntad como su única arma, Glass deberá enfrentarse a un territorio hostil, a un invierno brutal y a la guerra constante entre las tribus de nativos americanos, en una búsqueda implacable para conseguir vengarse.



El Renacido [2015]720p.Brrip[Latino].mkv

Format                         : Matroska
Format version                 : Version 4 / Version 2
File size                      : 1.48 GiB
Duration                       : 2 h 36 min

Overall bit rate               : 1 353 kb/s
Encoded date                   : UTC 2016-05-04 15:16:47
Writing application            : mkvmerge v8.3.0 ('Over the Horizon') 64bit
Writing library                : libebml v1.3.1 + libmatroska v1.4.2

Video
ID                             : 1
Format                         : AVC
Format/Info                    : Advanced Video Codec
Format profile                 : [email protected]
Format settings, ReFrames      : 4 frames
Codec ID                       : V_MPEG4/ISO/AVC
Duration                       : 2 h 36 min
Bit rate                       : 900 kb/s
Width                          : 1 280 pixels
Height                         : 534 pixels

Display aspect ratio           : 2.40:1
Original display aspect ratio  : 2.40:1
Frame rate mode                : Constant
Frame rate                     : 23.976 FPS
Scan type                      : Progressive
Stream size                    : 1 006 MiB (67%)
Writing library                : x264 core 148


Audio
ID                             : 2
Format                         : AC-3
Format/Info                    : Audio Coding 3
Mode extension                 : CM (complete main)
Format settings, Endianness    : Big
Codec ID                       : A_AC3
Duration                       : 2 h 36 min
Bit rate                       : 448 kb/s
Channel(s)                     : 6 channels
Channel positions              : Front: L C R, Side: L R, LFE
Sampling rate                  : 48.0 kHz
Frame rate                     : 31.250 FPS (1536 spf)
Compression mode               : Lossy
Stream size                    : 501 MiB (33%)
Default                        : Yes


Text
ID                             : 3
Format                         : PGS
Muxing mode                    : zlib
Codec ID                       : S_HDMV/PGS
Duration                       : 2 h 35 min
Bit rate                       : 3 394 b/s
Count of elements              : 1672
Stream size                    : 3.77 MiB (0%)
Default                        : Yes
Forced                         : No














El Renacido [2015] 720p Brrip [Latino] Mega
0 Puntos Score: 0/10
Visitas: 1138 Favoritos: 2
6 Comentarios El Renacido [2015] 720p Brrip [Latino] Mega
muy buena pelicula ...ya la tengo pero merece muchos  
Bah, los límites de MEGA, no puedo bajar las última dos partes...
gracias por tu aporte, saludos.  
Cita Usleis: Mostrar
busca aqui en identi un programa que se llama megadownloader y con este programa no tengras problemas con el limite de descarga, saludos.
Cita drmhic2010: Mostrar
Ya lo tengo pero no me agarró, sólo con Mipony, pero los últimos dos no los quiso bajar. Intenté con otra solución y fue desencriptar los enlaces de Mipony y luego ponerlos en el Megauploader, así sí me funcionó, gracias.
Gracias por esta peli y por la Secreatria, saludos.
Este post esta cerrado y no se permiten comentarios.
Para dejar un comentario Registrate! o.. eres ya usuario? Accede!