Oops.. Este post tiene los enlaces eliminados!

Identi revisa las denuncias de los usuarios en busca de enlaces eliminados que no dejan descargar los archivos, este mensaje te informa que este post que estas viendo tiene los enlaces eliminados.

Usa el Buscador

Por favor, te recomendamos que uses el buscador para encontrar más alternativas.

Los Osos de la mala suerte[1976] WEBRip x264 Mega

  • Categoría: Reciclaje
  • Publicado hace más de 2 meses
Los Osos de la mala suerte [The Bad News Bears] [1976] WEBRip x264 Mega VOSE







Título original:  The Bad News Bears
Año:  1976
Duración:  102 min.
País: Estados Unidos Estados Unidos
Director: Michael Ritchie
Guión: Bill Lancaster
Música: Jerry Fielding
Fotografía: John A. Alonzo
Reparto:  Walter Matthau, Chris Barnes, Tatum O'Neal, Ben Piazza, Vic Morrow, Erin Blunt, Jackie Earle Haley, Gary Lee Cavagnaro, Joyce Van Patten
Productora: Paramount Pictures
Género: Comedia | Cine familiar. Deporte. Béisbol. Amistad


Sinopsis

    Matthau es un antiguo jugador profesional de béisbol, famoso por su mal humor, que se hace cargo de un equipo juvenil. Su intención es conseguir el título, pero, para ello, tienen que empezar por ganar su primer partido.




Los.Osos.de.la.mala.suerte[1976] WEBRip.x264.mp4

Format                         : MPEG-4
Format profile                 : Base Media
Codec ID                       : isom (isom/iso2/avc1/mp41)
File size                      : 901 MiB
Duration                       : 1 h 42 min

Overall bit rate               : 1 234 kb/s


Video
ID                             : 1
Format                         : AVC
Format/Info                    : Advanced Video Codec
Format profile                 : [email protected]
Format settings, CABAC         : Yes
Format settings, ReFrames      : 5 frames
Codec ID                       : avc1
Codec ID/Info                  : Advanced Video Coding
Duration                       : 1 h 42 min
Bit rate                       : 1 100 kb/s
Width                          : 720 pixels
Height                         : 400 pixels

Display aspect ratio           : 16:9
Frame rate mode                : Constant
Frame rate                     : 23.976 (24000/1001) FPS
Color space                    : YUV
Chroma subsampling             : 4:2:0
Bit depth                      : 8 bits
Stream size                    : 804 MiB (89%)



Audio
ID                             : 2
Format                         : AAC
Format/Info                    : Advanced Audio Codec
Format profile                 : LC
Codec ID                       : 40
Duration                       : 1 h 42 min
Duration_LastFrame             : -11 ms
Bit rate mode                  : Constant
Bit rate                       : 128 kb/s
Channel(s)                     : 2 channels
Channel positions              : Front: L R
Sampling rate                  : 48.0 kHz
Frame rate                     : 46.875 FPS (1024 spf)
Compression mode               : Lossy
Stream size                    : 93.5 MiB (10%)
Language                       : English
Default                        : Yes
Alternate group                : 1




















ESTA PELICULA ME LA RECOMENDO UN AMIGO QUE DICE QUE LA VIO DE NIÑO COMO 10 VECES
Los Osos de la mala suerte[1976] WEBRip x264 Mega
19 Puntos Score: 6.3/10
Visitas: 840 Favoritos: 1
Ver los usuarios que votaron...
4 Comentarios Los Osos de la mala suerte[1976] WEBRip x264 Mega
clasico de oro te felicito  
No dejar  reconocer links favor corregir
ya  los dejos  gracias
Este post esta cerrado y no se permiten comentarios.
Para dejar un comentario Registrate! o.. eres ya usuario? Accede!