Proyecto X [2012] EXTENDED 720p brrip x264 ZP

Proyecto X [2012] EXTENDED 720p brrip x264 Zippyshare VOSE








Project.X.2012.EXTENDED.720p.BluRay.x264.mp4
Format                         : MPEG-4
Format profile                 : Base Media
Codec ID                       : isom (isom/avc1)
File size                      : 601 MiB
Duration                       : 1 h 32 min
Overall bit rate mode          : Variable


Video
ID                             : 1
Format                         : AVC
Format/Info                    : Advanced Video Codec
Format profile                 : [email protected]
Format settings, CABAC         : Yes
Format settings, ReFrames      : 6 frames
Codec ID                       : avc1
Codec ID/Info                  : Advanced Video Coding
Duration                       : 1 h 32 min
Bit rate                       : 806 kb/s
Maximum bit rate               : 4 013 kb/s
Width                          : 1 280 pixels
Height                         : 720 pixels

Display aspect ratio           : 16:9
Frame rate mode                : Constant
Frame rate                     : 23.976 (24000/1001) FPS
Color space                    : YUV
Chroma subsampling             : 4:2:0
Bit depth                      : 8 bits
Scan type                      : Progressive
Bits/(Pixel*Frame)             : 0.036
Stream size                    : 536 MiB (89%)
Writing library                : x264 core 120 r2164 da19765


Audio
ID                             : 2
Format                         : AAC
Format/Info                    : Advanced Audio Codec
Format profile                 : LC
Codec ID                       : 40
Duration                       : 1 h 32 min
Bit rate mode                  : Variable
Bit rate                       : 93.8 kb/s
Maximum bit rate               : 161 kb/s
Channel(s)                     : 2 channels
Channel positions              : Front: L R
Sampling rate                  : 44.1 kHz
Frame rate                     : 43.066 FPS (1024 spf)
Compression mode               : Lossy
Stream size                    : 62.4 MiB (10%)




















Proyecto X [2012] EXTENDED 720p brrip x264 ZP
5 Puntos Score: 5/10
Visitas: 1197 Favoritos: 2
Ver los usuarios que votaron...
4 Comentarios Proyecto X [2012] EXTENDED 720p brrip x264 ZP
GRACIAS, PERO UNA PREGUNTA, QUE INCLUYE ESTA VERSION EXTENDIDA????
@virtualx mas escenas eliminadas amigo
Para dejar un comentario Registrate! o.. eres ya usuario? Accede!