Miedo Profundo 2016 720p Brrip x264 Latino ZP

Miedo Profundo 2016 720p Brrip x264 Latino Zippyshare







Título original: The Shallows
Año:  2016
Duración: 87 min.
País: Estados Unidos Estados Unidos
Director: Jaume Collet-Serra
Guión: Anthony Jaswinski
Música: Marco Beltrami
Fotografía: Flavio Martínez Labiano
Reparto: Blake Lively, Óscar Jaenada, Brett Cullen, Sedona Legge, Janelle Bailey, Angelo Josue Lozano Corzo, José Manuel Trujillo Salas, Diego Espejel, Pablo Calva
Productora: Columbia Pictures / Ombra Films / Weimaraner Republic Pictures
Género: Thriller | Aventuras marinas. Tiburones. Supervivencia

Sinopsis

    Nancy (Blake Lively) es una joven que trata de superar la pérdida de su madre. Un día, practicando surf en una solitaria playa mexicana se queda atrapada en un islote a sólo cien metros de la costa. El problema está en que un enorme tiburón blanco se interpone entre ella y la otra orilla.





Miedo.Profundo.2016.720p.BluRay.x264.mkv
Format                         : Matroska
Format version                 : Version 4 / Version 2
File size                      : 674 MiB
Duration                       : 1 h 26 min

Overall bit rate               : 1 093 kb/s
Encoded date                   : UTC 2016-09-13 12:49:34
Writing application            : mkvmerge v8.3.0 ('Over the Horizon') 64bit
Writing library                : libebml v1.3.1 + libmatroska v1.4.2

Video
ID                             : 1
Format                         : AVC
Format/Info                    : Advanced Video Codec
Format profile                 : [email protected]
Format settings, CABAC         : Yes
Format settings, ReFrames      : 4 frames
Codec ID                       : V_MPEG4/ISO/AVC
Duration                       : 1 h 26 min
Bit rate                       : 900 kb/s
Width                          : 1 280 pixels
Height                         : 534 pixels

Display aspect ratio           : 2.40:1
Original display aspect ratio  : 2.40:1
Frame rate mode                : Constant
Frame rate                     : 23.976 FPS
Color space                    : YUV
Chroma subsampling             : 4:2:0
Stream size                    : 555 MiB (82%)


Audio
ID                             : 2
Format                         : AC-3
Format/Info                    : Audio Coding 3
Mode extension                 : CM (complete main)
Format settings, Endianness    : Big
Codec ID                       : A_AC3
Duration                       : 1 h 26 min
Bit rate mode                  : Constant
Bit rate                       : 192 kb/s
Channel(s)                     : 2 channels
Channel positions              : Front: L R
Sampling rate                  : 44.1 kHz
Frame rate                     : 28.711 FPS (1536 spf)
Compression mode               : Lossy
Stream size                    : 118 MiB (18%)
Language                       : Spanish
Default                        : Yes
Forced                         : No

































Miedo Profundo 2016 720p Brrip x264 Latino ZP
55 Puntos Score: 7.9/10
Visitas: 2622 Favoritos: 4
Ver los usuarios que votaron...
27 Comentarios Miedo Profundo 2016 720p Brrip x264 Latino ZP
DONDE ESTAN LOS LINK DE MEGA?
@drakomuxl perdon amigo es por zippyshare ya correji el post
ultimamente me esta dando mejor velocidad de descarga y subida Zippyshare que mega. gracias por la peli.
asi es amigo sube rapido y tambien baja muy bien @Wolfmaster3008  
Gracias se oye buena ya veremos
mega gracias amigo
Zippy se esta volviendo una excelente opción de descargar muchas gracias x el aporte
Hola..no puedo ver los link de descarga..doy clic pero no salen   ???..  
@Johana H ola te mande un mensaje lo checas  
Perfecto. Muchas Gracias.  
Muchas gracias. Descarga a full.
Excelente, gracias!!
 
Gracias maestro, magnifica!
Gracias! descargandeo
hola amigo...lamento decirte que no se habren los link o no se ven
@magecimu mm acabo de checar y si abren
Para dejar un comentario Registrate! o.. eres ya usuario? Accede!