libardomm
"Ciencia es mucho más una forma de pensar que un cuerpo de conocimient"

Trucos de Magia que Cualquiera Puede Hacer Vol. 1

Asombrosos Trucos de Magia que cualquiera puede hacer Vol. 1  [Ingles]


Información
This has been hailed as one of the very best introductions to the art of magic ever produced. The production values are very high and it features an original score of acid jazz music. Perfect for complete beginners, but there is also lots of valuable information for the professional. Effects with cards, coins, rubber bands, drinking straws, and more!



Datos:
DVD FULL
Peso: 2.28 Gb

General

Format                      : MPEG-PS
File size                   : 1 023 MiB
Duration                    : 25mn 54s
Overall bit rate mode       : Variable
Overall bit rate            : 5 520 Kbps

Video
ID                          : 224 (0xE0)
Format                      : MPEG Video
Format version              : Version 2
Format profile              : [email protected]
Format settings, BVOP       : Yes
Format settings, Matrix     : Default
Format settings, GOP        : M=3, N=26
Format settings, picture st : Field
Duration                    : 25mn 54s
Bit rate mode               : Variable
Bit rate                    : 5 218 Kbps
Maximum bit rate            : 7 000 Kbps
Width                       : 720 pixels
Height                      : 480 pixels
Display aspect ratio        : 4:3
Frame rate                  : 29.970 (30000/1001) fps
Standard                    : NTSC
Color space                 : YUV
Chroma subsampling          : 4:2:0
Bit depth                   : 8 bits
Scan type                   : Interlaced
Scan order                  : Top Field First
Compression mode            : Lossy
Bits/(Pixel*Frame)          : 0.504
Time code of first frame    : 00:01:41:14
Time code source            : Group of pictures header
GOP, Open/Closed            : Open
Stream size                 : 967 MiB (95%)
Color primaries             : BT.601 NTSC
Transfer characteristics    : BT.601
Matrix coefficients         : BT.601

Audio
ID                          : 189 (0xBD)-128 (0x80)
Format                      : AC-3
Format/Info                 : Audio Coding 3
Mode extension              : CM (complete main)
Format settings, Endianness : Big
Muxing mode                 : DVD-Video
Duration                    : 25mn 54s
Bit rate mode               : Constant
Bit rate                    : 192 Kbps
Channel(s)                  : 2 channels
Channel positions           : Front: L R
Sampling rate               : 48.0 KHz
Frame rate                  : 31.250 fps (1536 spf)
Compression mode            : Lossy
Stream size                 : 35.6 MiB (3%)










[/center]
Trucos de Magia que Cualquiera Puede Hacer Vol. 1
35 Puntos Score: 5/10
Visitas: 2516 Favoritos: 7
Ver los usuarios que votaron...
6 Comentarios Trucos de Magia que Cualquiera Puede Hacer Vol. 1
Se ve bueno, espero impresionar a mis hijos, gracias
Gracias por los trucos amigo  
me va a servir par mis hijas , gracias, saludos.
Buen post, gracias
Para dejar un comentario Registrate! o.. eres ya usuario? Accede!