Oops.. Este post tiene los enlaces eliminados!

Identi revisa las denuncias de los usuarios en busca de enlaces eliminados que no dejan descargar los archivos, este mensaje te informa que este post que estas viendo tiene los enlaces eliminados.

Usa el Buscador

Por favor, te recomendamos que uses el buscador para encontrar más alternativas.

Warcraft:The Beginning [2016] 720p x264 Mega

  • Categoría: Reciclaje
  • Publicado hace más de 2 meses
Warcraft:The Beginning [2016] 720p x264 Mega






Título original: Warcraft: The Beginning
Año: 2016
Duración:123 min.
País: Estados Unidos Estados Unidos
Director: Duncan Jones
Guión: Charles Leavitt, Duncan Jones (Historia: Chris Metzen)
Música: Ramin Djawadi
Fotografía:Simon Duggan
Reparto:Travis Fimmel, Paula Patton, Ben Foster, Dominic Cooper, Toby Kebbell, Ben Schnetzer, Robert Kazinsky, Clancy Brown, Daniel Wu, Ruth Negga, Anna Galvin, Callum Keith, Burkely Duffield, Ryan Robbins, Dean Redman, Glenn Ennis, Terry Notary, Elena Wurlitzer, Michael Adamthwaite, Anna Van Hooft, Callan Mulvey
Productora:Universal Pictures / Legendary Pictures / Blizzard Entertainment
Género:Fantástico. Aventuras | Fantasía medieval. Cine épico. Videojuego
Grupos:Blizzard | Warcraft Novedad

Sinopsis

    El pacífico reino de Azeroth está a punto de entrar en guerra para enfrentarse a unos terribles invasores: orcos guerreros que han dejado su destruido mundo para colonizar otro. Al abrirse un portal que conecta ambos mundos, un ejército se enfrenta a la destrucción, y el otro, a la extinción. Dos héroes, uno en cada bando, están a punto de chocar en un enfrentamiento que cambiará el destino de su familia, su pueblo y su hogar. Así empieza una espectacular saga de poder y sacrificio donde se descubren las numerosas caras de la guerra y donde cada uno lucha por lo suyo. Adaptación del popular videojuego homónimo.



Warcraft.2016.720p.BluRay.x264.mp4
Format                         : MPEG-4
Format profile                 : Base Media
Codec ID                       : isom (isom/iso2/avc1/mp41)
File size                      : 909 MiB
Duration                       : 2 h 3 min
Overall bit rate               : 1 032 kb/s
Writing application            : Lavf57.23.100

Video
ID                             : 1
Format                         : AVC
Format/Info                    : Advanced Video Codec
Format profile                 : [email protected]
Format settings, CABAC         : Yes
Format settings, ReFrames      : 4 frames
Codec ID                       : avc1
Codec ID/Info                  : Advanced Video Coding
Duration                       : 2 h 3 min
Bit rate                       : 900 kb/s
Width                          : 1 280 pixels
Height                         : 522 pixels
Display aspect ratio           : 2.450
Original display aspect ratio  : 2.40:1
Frame rate mode                : Constant
Frame rate                     : 23.976 (24000/1001) FPS
Color space                    : YUV
Chroma subsampling             : 4:2:0
Bit depth                      : 8 bits
Scan type                      : Progressive
Bits/(Pixel*Frame)             : 0.056
Stream size                    : 792 MiB (87%)

Audio
ID                             : 2
Format                         : AAC
Format/Info                    : Advanced Audio Codec
Format profile                 : LC
Codec ID                       : 40
Duration                       : 2 h 3 min
Duration_LastFrame             : -12 ms
Bit rate mode                  : Constant
Bit rate                       : 127 kb/s
Channel(s)                     : 2 channels
Channel positions              : Front: L R
Sampling rate                  : 48.0 kHz
Frame rate                     : 46.875 FPS (1024 spf)
Compression mode               : Lossy
Stream size                    : 111 MiB (12%)
Default                        : Yes
Alternate group                : 1































INCLUYE EL ARCHIVO SRT CON LOS SUBTITULOS
Warcraft:The Beginning [2016] 720p x264 Mega
10 Puntos Score: 10/10
Visitas: 1411 Favoritos: 2
Ver los usuarios que votaron...
3 Comentarios Warcraft:The Beginning [2016] 720p x264 Mega
Disculpa puedes enviar el link por mp? Gracias
@luis_f Gracias mister todo prefect  
no me descarga los subtitulos
Este post esta cerrado y no se permiten comentarios.
Para dejar un comentario Registrate! o.. eres ya usuario? Accede!