Oops.. Este post tiene los enlaces eliminados!

Identi revisa las denuncias de los usuarios en busca de enlaces eliminados que no dejan descargar los archivos, este mensaje te informa que este post que estas viendo tiene los enlaces eliminados.

Usa el Buscador

Por favor, te recomendamos que uses el buscador para encontrar más alternativas.

X-Men Apocalypse [2016]720p Brrip x265 Latino Mega

  • Categoría: Reciclaje
  • Publicado hace más de 2 meses
X-Men Apocalypse [2016]720p Brrip x265 Latino Mega









Título original: X-Men: Apocalypse
Año: 2016
Duración: 143 min.
País: Estados Unidos Estados Unidos
Director: Bryan Singer
Guión:Simon Kinberg (Historia: Mike Dougherty, Dan Harris, Bryan Singer, Simon Kinberg)
Música:John Ottman
Fotografía:Newton Thomas Sigel
Reparto:James McAvoy, Michael Fassbender, Jennifer Lawrence, Nicholas Hoult, Oscar Isaac, Rose Byrne, Evan Peters, Sophie Turner, Tye Sheridan, Josh Helman, Kodi Smit-McPhee, Lucas Till, Alexandra Shipp, Olivia Munn, Lana Condor, Hugh Jackman, Stan Lee
Productora:Twentieth Century Fox Film Corporation / Dune Entertainment / Marvel Entertainment
Género:Ciencia ficción. Acción | Años 80. Secuela. Superhéroes. Cómic. Marvel Comics
Grupos:X-Men Novedad

Sinopsis

    Desde el inicio de los tiempos Apocalipsis, el mutante más poderoso que ha existido nunca, era adorado como un dios mientras acumulaba los poderes del resto de mutantes convirtiéndose en un ser inmortal. Tras miles de años dormido, despierta en un mundo que no le gusta y por ello recluta un equipo, encabezado por Magneto, para acabar con toda la humanidad y crear un nuevo orden mundial. Pero el Profesor X, con la ayuda de Mística, se unirá a un grupo de jóvenes mutantes para tratar de detener al mayor enemigo contra el que se hayan enfrentado jamás.



Ekis-Men.Apocalypse.2016.720p.Bluray.x265.mkv
Format                         : Matroska
Format version                 : Version 4 / Version 2
File size                      : 822 MiB
Duration                       : 2 h 23 min
Overall bit rate               : 798 kb/s
Encoded date                   : UTC 2016-09-10 13:28:23
Writing application            : mkvmerge v8.3.0 ('Over the Horizon') 64bit
Writing library                : libebml v1.3.1 + libmatroska v1.4.2

Video
ID                             : 1
Format                         : HEVC
Format/Info                    : High Efficiency Video Coding
Format profile                 : Main [email protected]@Main
Codec ID                       : V_MPEGH/ISO/HEVC
Duration                       : 2 h 23 min
Bit rate                       : 539 kb/s
Width                          : 1 280 pixels
Height                         : 536 pixels
Display aspect ratio           : 2.40:1
Frame rate mode                : Constant
Frame rate                     : 23.976 (24000/1001) FPS
Color space                    : YUV
Chroma subsampling             : 4:2:0
Bit depth                      : 10 bits
Bits/(Pixel*Frame)             : 0.033
Stream size                    : 555 MiB (68%)
Default                        : Yes
Forced                         : Yes
Color range                    : Limited
Matrix coefficients            : BT.709

Audio #1
ID                             : 2
Format                         : AC-3
Format/Info                    : Audio Coding 3
Mode extension                 : CM (complete main)
Format settings, Endianness    : Big
Codec ID                       : A_AC3
Duration                       : 2 h 23 min
Bit rate mode                  : Constant
Bit rate                       : 192 kb/s
Channel(s)                     : 2 channels
Channel positions              : Front: L R
Sampling rate                  : 44.1 kHz
Frame rate                     : 28.711 FPS (1536 spf)
Compression mode               : Lossy
Delay relative to video        : 1 s 100 ms
Stream size                    : 198 MiB (24%)
Language                       : Spanish
Default                        : No
Forced                         : No

Audio #2
ID                             : 3
Format                         : AAC
Format/Info                    : Advanced Audio Codec
Format profile                 : LC
Codec ID                       : A_AAC
Duration                       : 2 h 23 min
Bit rate                       : 64.5 kb/s
Channel(s)                     : 2 channels
Channel positions              : Front: L R
Sampling rate                  : 48.0 kHz
Frame rate                     : 46.875 FPS (1024 spf)
Compression mode               : Lossy
Delay relative to video        : 21 ms
Stream size                    : 66.4 MiB (8%)
Language                       : English
Default                        : No
Forced                         : No






















X-Men Apocalypse [2016]720p Brrip x265 Latino Mega
35 Puntos Score: 8.8/10
Visitas: 2513 Favoritos: 4
Ver los usuarios que votaron...
9 Comentarios X-Men Apocalypse [2016]720p Brrip x265 Latino Mega
A LA GRAN MUY AGRADECIDO HERMANO, LA VERDAD LA ESTABA ESPERANDO DE QUE RATOS JEJEJE, ESPERO QUE TODO BIEN HOY EN LA NOCHE CINE EN MI CASA JAJAJA.-    
0.o
Muchas gracias por compartir
no tiene subs  pegados
en chino o koerano ,no?
Me podrias pasar el enlace del archivo 5? es que me dice que debo esperar 6 horas para volver a descargar y llevo desde ayer intentando descargarlo y siempre es lo mismo!  
Donde chingado están los SUB todavía no se hablar en RUSO hay partes que están en RUSO Noooooo!!! + 5
PD: consejo, deberías buscarlos y dejarlos en un enlace aparte, si encuentras los adecuados para esta pelic.
Este post esta cerrado y no se permiten comentarios.
Para dejar un comentario Registrate! o.. eres ya usuario? Accede!