Striptease [1996][DVDrip-Latino]


Striptease [1996][DVDrip-Latino]














TÍTULO ORIGINAL :Striptease
AÑO :1996
DURACIÓN :117 min
PAÍS :[Estados Unidos]
DIRECTOR Andrew Bergman
REPARTO : Demi Moore, Armand Assante, Burt Reynolds, Robert Patrick, Ving Rhames, Paul Guilfoyle, Rena Riffel, Rumer Willis
PRODUCTORA : Castle Rock Entertainment
GÉNERO : Drama. Thriller | Erótico. Crimen


General


    Complete name : Aliyah.stripteasee.avi
    Format : AVI
    Format/Info : Audio Video Interleave
    File size : 1.87 GiB
    Duration : 1h 57mn
    Overall bit rate : 2 290 Kbps
    Movie name : STRIPTEASE/Aliyah
    Writing application : VirtualDubMod 1.5.10.2 (build 2540/release)
    Writing library : VirtualDubMod build 2540/release


  Video
    ID : 0
    Format : MPEG-4 Visual
    Format profile : [email protected]
    Format settings, BVOP : Yes
    Format settings, QPel : No
    Format settings, GMC : No warppoints
    Format settings, Matrix : Default (H.263)
    Muxing mode : Packed bitstream
    Codec ID : XVID
    Codec ID/Hint : XviD
    Duration : 1h 57mn
    Bit rate : 869 Kbps
    Width : 720 pixels
    Height : 400 pixels
    Display aspect ratio : 16:9
    Frame rate : 23.976 fps
    Original frame rate : 25.000 fps
    Resolution : 24 bits
    Colorimetry : 4:2:0
    Scan type : Progressive
    Bits/(Pixel*Frame) : 0.126
    Stream size : 728 MiB (38%)
    Writing library : XviD 1.2.0.dev47 (UTC 2006-11-01)


   Audio


    Format : PCM
    Format settings, Endianness : Little
    Format settings, Sign : Unsigned
    Codec ID : 1
    Codec ID/Hint : Microsoft
    Duration : 1h 57mn
    Bit rate mode : Constant
    Bit rate : 1 411.2 Kbps
    Channel(s) : 2 channels
    Sampling rate : 44.1 KHz
    Resolution : 16 bits
    Stream size : 1.15 GiB (62%)
    Interleave, duration : 42 ms (1.00 video frame)
    Interleave, preload duration : 500 ms

Cuando Erin Grant pierde su trabajo y la custodia de su hija, se hace bailarina de striptease en un sórdido local de Miami. El propósito de Erin es reunir la gran suma de dinero que necesita para apelar la sentencia que le ha arrebatado a la niña de su lado. El potencial erótico y la sensualidad de Erin atraen la atención de un pervertido miembro del Congreso, que no se detendrá ante nada ni nadie para conseguirla.












www.identi.li



Striptease [1996][DVDrip-Latino]
10 Puntos Score: 5/10
Visitas: 3313 Favoritos: 2
Ver los usuarios que votaron...
8 Comentarios Striptease [1996][DVDrip-Latino]
Porfa podrias checar la carpeta de los links ya que no he podido entrar...
De veras revisa el link no se puede bajar gracias  
no se puede desargar
Hola el aporte es excelente pero no se ven los links GRACIAS
Puedes reparar los links, gracias  
podrias subir el audio de esta peli xfa
Para dejar un comentario Registrate! o.. eres ya usuario? Accede!