Oops.. Este post tiene los enlaces eliminados!

Identi revisa las denuncias de los usuarios en busca de enlaces eliminados que no dejan descargar los archivos, este mensaje te informa que este post que estas viendo tiene los enlaces eliminados.

Usa el Buscador

Por favor, te recomendamos que uses el buscador para encontrar más alternativas.

Dredd [2012] 720p brrip Dual Latino/ingles Mega

  • Categoría: Reciclaje
  • Publicado hace más de 2 meses
Dredd [2012] 720p brrip Dual Latino/ingles Mega














Título original: Dredd
Año: 2012
Duración:95 min.
País: Reino Unido Reino Unido
Director: Pete Travis
Guión:Alex Garland (Personajes: John Wagner, Carlos Ezquerra)
Música: Paul Leonard-Morgan
Fotografía:Anthony Dod Mantle
Reparto:Karl Urban, Olivia Thirlby, Lena Headey, Wood Harris, Warrick Grier, Domhnall Gleeson, Rakie Ayola, Deobia Oparei, Jason Cope, Langley Kirkwood, Andile Mngadi, Porteus Xandau, Rachel Wood, Emma Breschi, Tamer Burjaq
Productora:Lionsgate Films / DNA Films / IM Global / Reliance Big Entertainment
Género:Acción. Ciencia ficción | Distopía. Cómic. 3-D
Grupos: Juez Dredd Novedad


Sinopsis


    En un futuro cercano, Norteamérica se ha convertido en un páramo asolado por la radiactividad. Una única y gran megalópolis se extiende a lo largo de la costa este: Mega City 1. Esta inmensa y violenta urbe cuenta con una población de más de 800 millones de personas, cada una de las cuales es un infractor en potencia. Los encargados de acabar con el caos e imponer el orden son unos individuos que actúan a la vez como agentes de la ley, jueces, jurados y verdugos. Al frente de ellos está Dredd (Karl Urban), una leyenda viva de la justicia que vive entregado por entero a hacer cumplir la ley.


INFORMACION

Dredd.720p.brrip.mkv
Format                         : Matroska
Format version                 : Version 4 / Version 2
File size                      : 738 MiB
Duration                       : 1 h 35 min
Overall bit rate               : 1 077 kb/s
Encoded date                   : UTC 2016-09-07 16:45:00
Writing application            : mkvmerge v8.3.0 ('Over the Horizon') 64bit
Writing library                : libebml v1.3.1 + libmatroska v1.4.2

Video
ID                             : 1
Format                         : AVC
Format/Info                    : Advanced Video Codec
Format profile                 : [email protected]
Format settings, CABAC         : Yes
Codec ID                       : V_MPEG4/ISO/AVC
Duration                       : 1 h 35 min
Bit rate                       : 883 kb/s
Width                          : 1 280 pixels
Height                         : 536 pixels
Display aspect ratio           : 2.40:1
Frame rate                     : 23.976 (24000/1001) FPS
Color space                    : YUV
Bits/(Pixel*Frame)             : 0.054
Stream size                    : 605 MiB (82%)

Audio #1
ID                             : 2
Format                         : MPEG Audio
Codec ID                       : A_MPEG/L3
Codec ID/Hint                  : MP3
Duration                       : 1 h 35 min
Channel(s)                     : 2 channels
Frame rate                     : 41.667 FPS (1152 spf)
Stream size                    : 87.8 MiB (12%)
Writing library                : LAME3.98.2
Language                       : Spanish
Default                        : Yes
Forced                         : No

Audio #2
ID                             : 3
Format                         : AAC
Duration                       : 1 h 35 min
Bit rate                       : 64.0 kb/s
Channel(s)                     : 2 channels
Frame rate                     : 23.438 FPS (1024 spf)
Stream size                    : 43.9 MiB (6%)
Language                       : English
Default                        : No












Dredd [2012] 720p brrip Dual Latino/ingles Mega
32 Puntos Score: 6.4/10
Visitas: 903 Favoritos: 4
Ver los usuarios que votaron...
4 Comentarios Dredd [2012] 720p brrip Dual Latino/ingles Mega
Amigo muy buen aporte me gusta más que la original del 95  
Hola amigo, exelente aporte, un remake del clasico de S.S...sería posible que me facilites el enlace porque el Mega downloader no añade este tipo de encriptación
Me aparecen caidos!!
Este post esta cerrado y no se permiten comentarios.
Para dejar un comentario Registrate! o.. eres ya usuario? Accede!