Oops.. Este post tiene los enlaces eliminados!

Identi revisa las denuncias de los usuarios en busca de enlaces eliminados que no dejan descargar los archivos, este mensaje te informa que este post que estas viendo tiene los enlaces eliminados.

Usa el Buscador

Por favor, te recomendamos que uses el buscador para encontrar más alternativas.

Rudy: Reto a la Gloria [1993]720p BrRip Subtitulos

  • Categoría: Reciclaje
  • Publicado hace más de 3 meses
Rudy: Reto a la Gloria [1993] 720p BrRip Subtitulos Español Mega







Título original:  Rudy
Año:  1993
Duración: 116 min.
País: Estados Unidos Estados Unidos
Director:  David Anspaugh
Guión:  Angelo Pizzo
Música: Jerry Goldsmith
Fotografía:  Oliver Wood
Reparto: Sean Astin, Ned Beatty, Charles S. Dutton, Lili Taylor, Robert Prosky, Jon Favreau, Scott Benjaminson
Productora: TriStar Pictures
Género: Drama | Deporte. Fútbol americano. Basado en hechos reales. Años 70


Sinopsis
    
A Daniel E. Ruettiger todo el mundo le decía que era imposible que pudiera triunfar. Su padre, sus profesores, entrenadores y amigos estaban convencidos de que Rudy nunca podría ser admitido en la Universidad de Nôtre Dame y menos aún entrar en el más prestigioso programa de fútbol americano de la nación. Así las cosas, Daniel se va hundiendo cada vez más.




Rudy.1993.720p.BrRip.x264.mkv
Format                         : Matroska
Format version                 : Version 4 / Version 2
File size                      : 699 MiB
Duration                       : 1 h 53 min
Overall bit rate               : 857 kb/s
Encoded date                   : UTC 2016-09-05 16:55:39
Writing application            : mkvmerge v8.3.0 ('Over the Horizon') 64bit
Writing library                : libebml v1.3.1 + libmatroska v1.4.2

Video
ID                             : 1
Format                         : AVC
Format/Info                    : Advanced Video Codec
Format profile                 : [email protected]
Format settings, CABAC         : Yes
Format settings, ReFrames      : 6 frames
Codec ID                       : V_MPEG4/ISO/AVC
Duration                       : 1 h 53 min
Bit rate                       : 764 kb/s
Width                          : 1 280 pixels
Height                         : 692 pixels
Display aspect ratio           : 1.85:1
Frame rate mode                : Constant
Frame rate                     : 23.976 (24000/1001) FPS
Color space                    : YUV
Chroma subsampling             : 4:2:0
Bit depth                      : 8 bits
Scan type                      : Progressive
Bits/(Pixel*Frame)             : 0.036
Stream size                    : 622 MiB (89%)
Writing library                : x264 core 120 r2164 da19765
Default                        : Yes
Forced                         : No

Audio
ID                             : 2
Format                         : AAC
Format/Info                    : Advanced Audio Codec
Format profile                 : LC
Codec ID                       : A_AAC
Duration                       : 1 h 53 min
Bit rate                       : 92.0 kb/s
Channel(s)                     : 2 channels
Channel positions              : Front: L R
Sampling rate                  : 48.0 kHz
Frame rate                     : 46.875 FPS (1024 spf)
Compression mode               : Lossy
Stream size                    : 75.0 MiB (11%)
Default                        : Yes
Forced                         : No

Text
ID                             : 3
Format                         : UTF-8
Codec ID                       : S_TEXT/UTF8
Codec ID/Info                  : UTF-8 Plain Text
Duration                       : 1 h 50 min
Bit rate                       : 47 b/s
Count of elements              : 1172
Stream size                    : 38.5 KiB (0%)
Title                          : Subs BY Identi
Language                       : Spanish
Default                        : Yes
Forced                         : No









Rudy: Reto a la Gloria [1993]720p BrRip Subtitulos
43 Puntos Score: 8.6/10
Visitas: 560 Favoritos: 1
Ver los usuarios que votaron...
5 Comentarios Rudy: Reto a la Gloria [1993]720p BrRip Subtitulos
excelente peli!!  
Que?? te vas a llevar todos mis puntos??? jejeje
Me interesa esta peli, lastima que Jdownloader no me muestra los enlaces para poder descargar desde  mega downloader :-(  gracias por compartirla de todos modos
waaaaaaaaaaaa, regalame los links para bajar por mi cel porfa, no puedo descargar desde mega en mi jdownloader
Este post esta cerrado y no se permiten comentarios.
Para dejar un comentario Registrate! o.. eres ya usuario? Accede!