Oops.. Este post tiene los enlaces eliminados!

Identi revisa las denuncias de los usuarios en busca de enlaces eliminados que no dejan descargar los archivos, este mensaje te informa que este post que estas viendo tiene los enlaces eliminados.

Usa el Buscador

Por favor, te recomendamos que uses el buscador para encontrar más alternativas.

Le Renard et l'enfant [La Niña y el zorro]Dvdrip

  • Categoría: Reciclaje
  • Publicado hace más de 3 meses
Le Renard et l'enfant [La Niña y el zorro]Dvdrip Latino Mega








Título original: Le Renard et l'enfant (The Fox And The Child)
Año: 2007
Duración: 92 min.
País: Francia Francia
Director: Luc Jacquet
Guión: Luc Jacquet, Eric Rognard
Música: Evgueni Galperine, Alice Lewis, David Reyes
Fotografía:Gérard Simon, Eric Dumage
Reparto:Bertille Noël-Bruneau, Thomas Laliberté, Isabelle Carré
Productora: Bonne Pioche
Género: Drama | Naturaleza. Animales


Sinopsis

    Combinando imágenes de documental de naturaleza con ficción, relata una historia de amistad entre una niña y un zorro. Dirigida por Luc Jacquet, director del aclamado documental "El viaje del emperador" (La Marche de l'empereur, 2005).



La Niña y el Zorrito[Dvdrip] [2007].avi
Format                         : AVI
Format/Info                    : Audio Video Interleave
File size                      : 700 MiB
Duration                       : 1 h 36 min
Overall bit rate mode          : Variable
Overall bit rate               : 1 014 kb/s
Writing application            : VirtualDubMod 1.5.4.1 (build 2178/release)
Writing library                : VirtualDubMod build 2178/release

Video
ID                             : 0
Format                         : MPEG-4 Visual
Format profile                 : Advanced [email protected]
Format settings, BVOP          : 1
Format settings, QPel          : No
Format settings, GMC           : No warppoints
Format settings, Matrix        : Custom
Codec ID                       : XVID
Codec ID/Hint                  : XviD
Duration                       : 1 h 36 min
Bit rate                       : 885 kb/s
Width                          : 640 pixels
Height                         : 368 pixels
Display aspect ratio           : 1.739
Frame rate                     : 23.976 (23976/1000) FPS
Color space                    : YUV
Chroma subsampling             : 4:2:0
Bit depth                      : 8 bits
Scan type                      : Progressive
Compression mode               : Lossy
Bits/(Pixel*Frame)             : 0.157
Stream size                    : 611 MiB (87%)
Writing library                : XviD 1.2.0.dev47 (UTC 2006-11-01)

Audio
ID                             : 1
Format                         : MPEG Audio
Format version                 : Version 1
Format profile                 : Layer 3
Mode                           : Joint stereo
Mode extension                 : MS Stereo
Codec ID                       : 55
Codec ID/Hint                  : MP3
Duration                       : 1 h 36 min
Bit rate mode                  : Variable
Bit rate                       : 117 kb/s
Nominal bit rate               : 128 kb/s
Channel(s)                     : 2 channels
Sampling rate                  : 48.0 kHz
Compression mode               : Lossy
Stream size                    : 80.5 MiB (11%)
Alignment                      : Aligned on interleaves
Interleave, duration           : 24  ms (0.58 video frame)
Interleave, preload duration   : 464  ms
Writing library                : LAME3.97
Encoding settings              : -m j -V 4 -q 2 -lowpass 17 --abr 128
Language                       : Spanish















Le Renard et l'enfant [La Niña y el zorro]Dvdrip
24 Puntos Score: 8/10
Visitas: 1146 Favoritos: 1
Ver los usuarios que votaron...
5 Comentarios Le Renard et l'enfant [La Niña y el zorro]Dvdrip
dice enlace desconocido...¿¿¿¿????
Hola hola, podrías mostrar los enlaces. Gracias
pinta buena gracias  
conocen pelis parecidas, sobre todo de zorros? quieor escribir algo sobre el principito y necesito documentarme emocionalmente de zorros
Este post esta cerrado y no se permiten comentarios.
Para dejar un comentario Registrate! o.. eres ya usuario? Accede!