Oops.. Este post tiene los enlaces eliminados!

Identi revisa las denuncias de los usuarios en busca de enlaces eliminados que no dejan descargar los archivos, este mensaje te informa que este post que estas viendo tiene los enlaces eliminados.

Usa el Buscador

Por favor, te recomendamos que uses el buscador para encontrar más alternativas.

Any Given Sunday[Brrip] 1999] [720]Latino Mega

  • Categoría: Reciclaje
  • Publicado hace más de 3 meses
Any Given Sunday[Brrip] 1999] [720]Latino Mega








Título original: Any Given Sunday [Un domingo cualquiera]
Año: 1999
Duración: 162 min.
País: Estados Unidos Estados Unidos
Director: Oliver Stone
Guión: John Logan, Oliver Stone (Historia: John Logan, Daniel Pyne)
Música: Bill Brown, Varios
Fotografía: Salvatore Totino
Reparto: Al Pacino, Cameron Diaz, Dennis Quaid, James Woods, Jamie Foxx, LL Cool J, Jim Brown, Matthew Modine, Aaron Eckhart, Lawrence Taylor, John C. McGinley, Bill Bellamy, Charlton Heston, Ann-Margret, Lauren Holly, Elizabeth Berkley, Lela Rochon, Andrew Bryniarski, Clifton Davis, Oliver Stone
Productora: Warner Bros
Género: Drama | Deporte. Fútbol americano

Sinopsis

    Cuatro años antes, los Tiburones de Miami, dirigidos por el entrenador D'Amato (Al Pacino), habían ganado dos campeonatos consecutivos, pero ahora sólo consiguen acumular derrotas. Además, el público escasea y los antiguos ídolos están en el ocaso de sus carreras, particularmente Jack "Cap" Rooney (Dennis Quaid), que a sus 39 años se aferra desesperadamente a lo poco que le queda como jugador profesional. Por otra parte, son frecuentes los conflictos con Christina Pagniacci (Cameron díaz), la joven presidenta y propietaria del equipo. Además, D'Amato tiene serios problemas familiares.
Any.Given.Sunday.DIRECTORS.CUT.1999.720p.BrRip.x264.mkv
Format                         : Matroska
Format version                 : Version 4 / Version 2
File size                      : 1.21 GiB
Duration                       : 2 h 37 min
Overall bit rate               : 1 103 kb/s
Encoded date                   : UTC 2015-07-02 14:18:39
Writing application            : mkvmerge v7.9.0 ('Birds') 64bit
Writing library                : libebml v1.3.1 + libmatroska v1.4.2

Video
ID                             : 1
Format                         : AVC
Format/Info                    : Advanced Video Codec
Format profile                 : [email protected]
Format settings, CABAC         : Yes
Format settings, ReFrames      : 8 frames
Codec ID                       : V_MPEG4/ISO/AVC
Duration                       : 2 h 37 min
Bit rate                       : 813 kb/s
Width                          : 1 280 pixels
Height                         : 528 pixels
Display aspect ratio           : 2.40:1
Frame rate mode                : Constant
Frame rate                     : 23.976 (24000/1001) FPS
Color space                    : YUV
Chroma subsampling             : 4:2:0
Bit depth                      : 8 bits
Scan type                      : Progressive
Bits/(Pixel*Frame)             : 0.050
Stream size                    : 914 MiB (74%)
Writing library                : x264 core 125 r2200 999b753


Audio #1
ID                             : 2
Format                         : AAC
Format/Info                    : Advanced Audio Codec
Format profile                 : LC
Codec ID                       : A_AAC
Duration                       : 2 h 37 min
Bit rate                       : 96.0 kb/s
Channel(s)                     : 2 channels
Channel positions              : Front: L R
Sampling rate                  : 48.0 kHz
Frame rate                     : 46.875 FPS (1024 spf)
Compression mode               : Lossy
Stream size                    : 108 MiB (9%)
Language                       : English
Default                        : No
Forced                         : No

Audio #2
ID                             : 3
Format                         : AC-3
Format/Info                    : Audio Coding 3
Mode extension                 : CM (complete main)
Format settings, Endianness    : Big
Codec ID                       : A_AC3
Duration                       : 2 h 37 min
Bit rate mode                  : Constant
Bit rate                       : 192 kb/s
Channel(s)                     : 2 channels
Channel positions              : Front: L R
Sampling rate                  : 48.0 kHz
Frame rate                     : 31.250 FPS (1536 spf)
Compression mode               : Lossy
Stream size                    : 216 MiB (17%)
Language                       : Spanish
Default                        : Yes
Forced                         : No[/left]






















Any Given Sunday[Brrip] 1999] [720]Latino Mega
49 Puntos Score: 8.2/10
Visitas: 858 Favoritos: 2
Ver los usuarios que votaron...
12 Comentarios Any Given Sunday[Brrip] 1999] [720]Latino Mega
Aunque la tengo en 1080p, en Bluray y en DVD, te doy 10 puntos porque es una de las mejores películas de Football, de esas que no pueden faltar en la colección!!!
@ricegamo Asi es amigo muy buena peli
Qué muy buen aporte !!!  Muchas gracias  
excelente aporte gracias
@akula1997 de nada amigo, aki andamos para colaborar con la comunidad
@theghost64 disfrutala amigo
Mil gracias compañero...llevaba rato buscando esta movie, que es una de las mejores en su genero... mil gracias en vdd... saludos y un abrazo con afecto...
muchas gracias  
@India1414 saludos  
@vegetin100 para servirles amigo  
gracias yo tambien la andaba buscando el discurso de Pacino es de lo mejor,para salir y vencer lo que te propongas hacer en la vida
amigo la caratula dice que es directors cut. ES alguna version extendida????.. vienen partes en ingles ?
Este post esta cerrado y no se permiten comentarios.
Para dejar un comentario Registrate! o.. eres ya usuario? Accede!