Oops.. Este post tiene los enlaces eliminados!

Identi revisa las denuncias de los usuarios en busca de enlaces eliminados que no dejan descargar los archivos, este mensaje te informa que este post que estas viendo tiene los enlaces eliminados.

Usa el Buscador

Por favor, te recomendamos que uses el buscador para encontrar más alternativas.

El Conjuro 2 [2016] 720p Brrip HEVC [Mega] Latino

  • Categoría: Reciclaje
  • Publicado hace más de 3 meses




El Conjuro 2 [2016] 720p Brrip HEVC [Mega] Latino





Título original: The Conjuring 2: The Enfield Poltergeist
Año:  2016
Duración: 133 min.
País: Estados Unidos Estados Unidos
Director: James Wan
Guión: Carey Hayes, Chad Hayes
Música: Joseph Bishara
Fotografía: Don Burgess
Reparto: Vera Farmiga, Patrick Wilson, Frances O'Connor, Madison Wolfe, Lauren Esposito, Patrick McAuley, Benjamin Haigh, Maria Doyle Kennedy, Simon Delaney, Franka Potente, Simon McBurney, Javier Botet
Productora: Evergreen Media Group / New Line Cinema / The Safran Company
Género: Terror | Sobrenatural. Secuela
Grupos: Expediente Warren Novedad


El.Conjuro.2[2016]720p.BluRay.HEVC[x265].mkv
Format                         : Matroska
Format version                 : Version 4 / Version 2
File size                      : 617 MiB
Duration                       : 2 h 13 min
Overall bit rate               : 645 kb/s
Encoded date                   : UTC 2016-09-02 14:39:44
Writing application            : mkvmerge v8.3.0 ('Over the Horizon') 64bit
Writing library                : libebml v1.3.1 + libmatroska v1.4.2

Video
ID                             : 1
Format                         : HEVC
Format/Info                    : High Efficiency Video Coding
Format profile                 : Main [email protected]@Main
Codec ID                       : V_MPEGH/ISO/HEVC
Duration                       : 2 h 13 min
Bit rate                       : 491 kb/s
Width                          : 1 280 pixels
Height                         : 536 pixels
Display aspect ratio           : 2.40:1
Frame rate mode                : Constant
Frame rate                     : 23.976 (24000/1001) FPS
Color space                    : YUV
Chroma subsampling             : 4:2:0
Bit depth                      : 10 bits
Bits/(Pixel*Frame)             : 0.030
Stream size                    : 470 MiB (76%)
Language                       : English
Default                        : Yes
Forced                         : Yes
Color range                    : Limited
Matrix coefficients            : BT.709

Audio
ID                             : 2
Format                         : AAC
Format/Info                    : Advanced Audio Codec
Format profile                 : LC
Codec ID                       : A_AAC
Duration                       : 2 h 13 min
Bit rate                       : 152 kb/s
Channel(s)                     : 2 channels
Channel positions              : Front: L R
Sampling rate                  : 44.1 kHz
Frame rate                     : 43.066 FPS (1024 spf)
Compression mode               : Lossy
Stream size                    : 145 MiB (24%)
Title                          : Identi-luis_f
Language                       : Spanish
Default                        : Yes
Forced                         : No

























El Conjuro 2 [2016] 720p Brrip HEVC [Mega] Latino
25 Puntos Score: 8.3/10
Visitas: 2371 Favoritos: 0
Ver los usuarios que votaron...
6 Comentarios El Conjuro 2 [2016] 720p Brrip HEVC [Mega] Latino
Muchas gacias  
vamos a ver como esta?
Se ve lindo.Gracias
Gracias descargada y ahora a ver.  
Este post esta cerrado y no se permiten comentarios.
Para dejar un comentario Registrate! o.. eres ya usuario? Accede!