Oops.. Este post tiene los enlaces eliminados!

Identi revisa las denuncias de los usuarios en busca de enlaces eliminados que no dejan descargar los archivos, este mensaje te informa que este post que estas viendo tiene los enlaces eliminados.

Usa el Buscador

Por favor, te recomendamos que uses el buscador para encontrar más alternativas.

Kingsman El Servicio Secreto[2014]UNCUT[720p]BRRip

  • Categoría: Reciclaje
  • Publicado hace más de 3 meses
Kingsman El Servicio Secreto [2014] UNCUT [720p] BRRip MEGA





Título original: Kingsman. The Secret Service
Año: 2014
Duración: 129 min.
País: Reino Unido Reino Unido
Director:  Matthew Vaughn
Guión: Matthew Vaughn, Jane Goldman (Cómic: Mark Millar, Dave Gibbons)
Música: Henry Jackman, Matthew Margeson
Fotografía: George Richmond
Reparto: Colin Firth, Taron Egerton, Samuel L. Jackson, Mark Strong, Michael Caine, Sofia Boutella, Sophie Cookson, Mark Hamill, Jack Davenport, Tom Prior, Neve Gachev, Alisha Heng
Productora: Twentieth Century Fox Film Corporation / Marv Films / TSG Entertainment
Género: Thriller. Acción. Comedia | Espionaje. Cómic
Grupos: Adaptaciones de Mark Millar | Adaptaciones de Dave Gibbons Novedad
Web oficial:http://www.KingsmanMovie.com

Sinopsis

    Un veterano agente secreto inglés (Colin Firth) debe entrenar a un joven sin refinar (Taron Egerton), pero que promete convertirse en un competitivo agente gracias a un ultra-programa de entrenamiento, al mismo tiempo que una amenaza global emerge procedente de un genio retorcido. Adaptación del cómic de Mark Millar y Dave Gibbons. (FILMAFFINITY)


Kingsman.The.Secret.Service.2014.UNCUT.720p.BRRip.mkv
Format                         : Matroska
Format version                 : Version 4 / Version 2
File size                      : 1.26 GiB
Duration                       : 2 h 8 min
Overall bit rate               : 1 397 kb/s
Movie name                     : Kingsman.The.Secret.Service.2014.UNCUT.720p.BRRip
Encoded date                   : UTC 2015-09-27 21:04:31
Writing application            : mkvmerge v8.3.0 ('Over the Horizon') 64bit
Writing library                : libebml v1.3.1 + libmatroska v1.4.2

Video
ID                             : 1
Format                         : AVC
Format/Info                    : Advanced Video Codec
Format profile                 : [email protected]
Format settings, CABAC         : Yes
Format settings, ReFrames      : 9 frames
Codec ID                       : V_MPEG4/ISO/AVC
Duration                       : 2 h 8 min
Bit rate                       : 1 183 kb/s
Width                          : 1 280 pixels
Height                         : 534 pixels
Display aspect ratio           : 2.40:1
Frame rate mode                : Constant
Frame rate                     : 23.976 (24000/1001) FPS
Color space                    : YUV
Chroma subsampling             : 4:2:0
Bit depth                      : 8 bits
Scan type                      : Progressive
Bits/(Pixel*Frame)             : 0.072
Stream size                    : 1.06 GiB (85%)
Writing library                : x264 core 146 r2538 121396c


Audio #1
ID                             : 2
Format                         : AAC
Format/Info                    : Advanced Audio Codec
Format profile                 : HE-AAC / LC
Codec ID                       : A_AAC
Duration                       : 2 h 8 min
Bit rate                       : 100.0 kb/s
Channel(s)                     : 2 channels
Channel positions              : Front: L R
Sampling rate                  : 48.0 kHz / 24.0 kHz
Frame rate                     : 23.438 FPS (1024 spf)
Compression mode               : Lossy
Delay relative to video        : 31 ms
Stream size                    : 92.0 MiB (7%)
Language                       : English
Default                        : No
Forced                         : No


Audio #2
ID                             : 4
Format                         : MPEG Audio
Format version                 : Version 1
Format profile                 : Layer 3
Mode                           : Joint stereo
Mode extension                 : MS Stereo
Codec ID                       : A_MPEG/L3
Codec ID/Hint                  : MP3
Duration                       : 2 h 8 min
Bit rate mode                  : Constant
Bit rate                       : 112 kb/s
Channel(s)                     : 2 channels
Sampling rate                  : 44.1 kHz
Frame rate                     : 38.281 FPS (1152 spf)
Compression mode               : Lossy
Delay relative to video        : 1 s 0 ms
Stream size                    : 103 MiB (8%)
Writing library                : LAME3.99r
Encoding settings              : -m j -V 4 -q 2 -lowpass 15.6 -b 112
Language                       : Spanish
Default                        : No
Forced                         : No






Sin censura con la escena final de la princesa Recomendada




Kingsman El Servicio Secreto[2014]UNCUT[720p]BRRip
10 Puntos Score: 10/10
Visitas: 1024 Favoritos: 4
Ver los usuarios que votaron...
7 Comentarios Kingsman El Servicio Secreto[2014]UNCUT[720p]BRRip
gracias se ve buena vi la version normal en latino esta esta en castellano no?
Gracias, la estuve buscando en full HD pero no la pude encontrar, es mas no sabia  que existia esta vercion, gracias
Gracias por tu Aporte y tu Tiempo!  
me podrias mandar el link si no es mucha molestia amigo  no doy puntos mi rango no me lo permite  =)
Este post esta cerrado y no se permiten comentarios.
Para dejar un comentario Registrate! o.. eres ya usuario? Accede!