Capitan America Civil War 720p y 1080p Latino MEGA



Capitan America:  Civil War (2016)

720p - Bluray | MKV-x264 | 1280x534 | 1.12GB | Español Latino

1080p - Bluray | MKV-x264 | 1920x800 | 2.31GB | Español Latino

SINOPSIS

Después de que otro incidente internacional involucre a Los Vengadores, causando varios daños colaterales, aumentan las presiones políticas para instaurar un sistema que exija más responsabilidades y que determine cuándo deben contratar los servicios del grupo de superhéroes. Esta nueva situación dividirá a Los Vengadores, mientras intentan proteger al mundo de un nuevo y terrible villano. Tercera entrega de la saga Capitán América.

INFORMACIÓN

Título original: Captain America: Civil War
Año: 2016
Duración: 147 min.
País: Estados Unidos
Director: Anthony Russo, Joe Russo
Guión: Christopher Markus, Stephen McFeely (Cómic: Mark Millar) (Personajes: Joe Simon, Jack Kirby)
Música: Henry Jackman
Fotografía: Brandon Trost
Reparto: Chris Evans, Robert Downey Jr., Scarlett Johansson, Sebastian Stan, Anthony Mackie, Don Cheadle, Jeremy Renner, Chadwick Boseman, Paul Bettany, Elizabeth Olsen, Paul Rudd, Emily VanCamp, Tom Holland, Daniel Brühl, Frank Grillo, William Hurt, Martin Freeman, Marisa Tomei, John Kani, John Slattery, Alfre Woodard, Stan Lee, Heidi Moneymaker, Gene Farber, Florence Kasumba
Productora: Marvel Studios / Marvel Entertainment / Sony Pictures Imageworks (SPI)
Género:  Acción. Thriller. Fantástico | Superhéroes. Cómic. Marvel Comics. Secuela. 3-D

CAPTURAS







DESCARGAR

720p

https://mega.co.nz/#!dllT1JKC!lYBv8wm86TMN65V0j4kF0MKaeTeVw7ubOJJKDSOpb4Y

1080p

https://mega.co.nz/#!1htXhRrY!zXrkmexoq0n9MXkM8rQzsrwp5hZlM1kjPkVt57ivgrg

Links libres para todos, no resubo, sigueme y veras cuando publique asi disfrutas de los links de mega.

AUDIO LATINO FINAL DE DVD/BLURAY
Capitan America Civil War 720p y 1080p Latino MEGA
305 Puntos Score: 9.2/10
Visitas: 7930 Favoritos: 18
Ver los usuarios que votaron...
55 Comentarios Capitan America Civil War 720p y 1080p Latino MEGA
MUCHAS GRACIAS ESPERABA EL AUDIO FINAL
Español Latino final? o es audio grabado de cine?
perro 404 not found
perdón error 404
no funcionan los enlaces
Cita JCHacKeR: Mostrar

Sabes leer?
todo bien con megadownloader
yo la estoy bajando hice copy,, y megadownloader lo acepto y listo,,,
No andan los link....
gracias, te dejo puntos cuando tenga nuevamente  
Mucho mejor en excelente calidad y en latino!! gracias man!!  
Cita ernesto277: Mostrar

No clickear el enlace, identi da un error no se porque.
Copiar y pegar aparte.
Siguieno,  se ve espectacular.  Gracias @chamako, saludos.
Ok. Chaz Gracias
Gracias!!! todo funcionando bien
muchisimas gracias
Por fin se agradece  
Muchas Gracias  
Toma mis puntos y dame la maldita pelicula  
La esperaba, muchas gracias !!!
gracias por compartir, saludos desde Méx
Gracias por compartir.....    
Hola, muchas gracias por tu aporte, ya tengo el bluray ahora nomas a ponerle el audio, saludos.
ES AUDIO FINAL,ESTA BUENISIMA
Cita Chamako: Mostrar
Siendo tan soberbio con la gente que entra en tus aportes lo unico que vas a hacer es que te traten para el ojete, siendo que te deje + 10 puntos a pesar de tu comentario altanero y soberbio... como carajo lo voy a ver si lo pusiste al final del post... ese tipo de informacion tiene que estar bien arriba o directamente donde pones las caracteristicas y detales de la pelicula... NO AL FINAL. que te costaba contestar "SI ES AUDIO FINAL" y listo... ibas a gastar el mismo tiempo que gastaste en contestar de forma soberbia. Saludos y anda a cagar
Gracias !!!!   oye de casualidad tendras la de MONEYBALL?
Cita JCHacKeR: Mostrar

Que tiene que ver que este al final del post, lo puse debajo de los links, se puede leer claramente. Y lo puse ahora en los post porque siempre me andan preguntando que si es audio latino final o de cine y como que cansa ya a pesar de estar ahi.

Además todos saben que yo no publico audios latinos de cine, nunca.
Que bueno y es la version que pesa menos.
espero el audio este a 5.1 X_X
Video
ID                          : 1
Format                      : AVC
Format/Info                 : Advanced Video Codec
Format profile              : [email protected]
Format settings, CABAC      : Yes
Format settings, ReFrames   : 4 frames
Codec ID                    : V_MPEG4/ISO/AVC
Duration                    : 2h 27mn
Bit rate                    : 2 050 Kbps
Width                       : 1 920 pixels
Height                      : 800 pixels
Display aspect ratio        : 2.40:1
Frame rate mode             : Constant
Frame rate                  : 23.976 (24000/1001) fps
Color space                 : YUV
Chroma subsampling          : 4:2:0
Bit depth                   : 8 bits
Scan type                   : Progressive
Bits/(Pixel*Frame)          : 0.056
Stream size                 : 2.11 GiB (91%)

el audio no es 5.1 u.u
D                          : 2
Format                      : MPEG Audio
Format version              : Version 1
Format profile              : Layer 3
Mode                        : Joint stereo
Mode extension              : MS Stereo
Codec ID                    : A_MPEG/L3
Codec ID/Hint               : MP3
Duration                    : 2h 27mn
Bit rate mode               : Constant
Bit rate                    : 192 Kbps
Channel(s)                  : 2 channels
Sampling rate               : 48.0 KHz
Frame rate                  : 41.667 fps (1152 spf)
Compression mode            : Lossy
Delay relative to video     : 1s 0ms
Stream size                 : 203 MiB (9%)
Descargada mister todo perfect  
Un colosal agradecimiento para Chamako
gracias!!!!!!!!!!!!! asi me gusta que pongan los links, por que jdownloader no podia descargar
Muchisimas gracias!
Da error al descomprimir. No sirve el archivo.
Gracias por el link libre de tanta mierda... +10
De lujo, graicas amigo  
Gracias te dejo 10 puntos...
Bajando.. Gracias por el aporte..
Bajando.. Gracias por el aporte..
gracias por tu aporte, excelente calidad. saludos
chamaco de tracker obtienes el contenido yo tengo TL pero lo publicaste antes de que saliera ahi ?  
Yeah gracias buen aporte.
muchas gracias niun drama con JD
gracias, se ve bien
muchas gracias descargo sin problema por MegaDOWNLOADER...
Gracias por el aporte  
Para dejar un comentario Registrate! o.. eres ya usuario? Accede!