Oops.. Este post tiene los enlaces eliminados!

Identi revisa las denuncias de los usuarios en busca de enlaces eliminados que no dejan descargar los archivos, este mensaje te informa que este post que estas viendo tiene los enlaces eliminados.

Usa el Buscador

Por favor, te recomendamos que uses el buscador para encontrar más alternativas.

Havoc [Perturbadas] [2005] 480p[Avi] Latino Mega

  • Categoría: Reciclaje
  • Publicado hace más de 3 meses
Havoc [Perturbadas] [2005] 480p Avi Latino Mega








Título original: Havoc
Año:  2005
Duración:  85 min.
País: Estados Unidos Estados Unidos
Director: Barbara Kopple
Guión:  Stephen Gaghan (Historia: Stephen Gaghan, Jessica Kaplan)
Música: Cliff Martinez
Fotografía: Kramer Morgenthau
Reparto: Anne Hathaway
, Bijou Phillips , Joseph Gordon-Levitt, Mike Vogel, Freddy Rodriguez, Shiri Appleby, Raymond Cruz
Productora: New Line Cinema
Género: Drama | Adolescencia

Sinopsis

    Dos chicas adolescentes de clase acomodada abandonan la seguridad de sus hogares en las afueras de la ciudad para explorar el peligroso ambiente de Los Ángeles Este, un barrio conflictivo donde aprenden que hasta las acciones más inocentes pueden tener consecuencias.



General
Havoc [2005] 480p.avi
Format                         : AVI
Format/Info                    : Audio Video Interleave
File size                      : 1.33 GiB
Duration                       : 1 h 24 min
Overall bit rate               : 2 241 kb/s
Writing application            : VirtualDubMod 1.5.10.2 (build 2542/release)
Writing library                : VirtualDubMod build 2542/release

Video
ID                             : 0
Format                         : MPEG-4 Visual
Format profile                 : Advanced [email protected]
Format settings, BVOP          : 4
Format settings, QPel          : No
Format settings, GMC           : 3 warppoints
Format settings, Matrix        : Custom
Muxing mode                    : Packed bitstream
Codec ID                       : XVID
Codec ID/Hint                  : XviD
Duration                       : 1 h 24 min
Bit rate                       : 1 912 kb/s
Width                          : 800 pixels
Height                         : 432 pixels
Display aspect ratio           : 1.85:1
Frame rate                     : 23.976 (23976/1000) FPS
Color space                    : YUV
Chroma subsampling             : 4:2:0
Bit depth                      : 8 bits
Scan type                      : Progressive
Compression mode               : Lossy
Bits/(Pixel*Frame)             : 0.231
Stream size                    : 1.13 GiB (85%)
Writing library                : XviD 1.2.0SMP (UTC 2006-01-08)

Audio
ID                             : 1
Format                         : AC-3
Format/Info                    : Audio Coding 3
Mode extension                 : CM (complete main)
Format settings, Endianness    : Big
Codec ID                       : 2000
Duration                       : 1 h 24 min
Bit rate mode                  : Constant
Bit rate                       : 320 kb/s
Channel(s)                     : 6 channels
Channel positions              : Front: L C R, Side: L R, LFE
Sampling rate                  : 48.0 kHz
Frame rate                     : 31.250 FPS (1536 spf)
Compression mode               : Lossy
Delay relative to video        : 28 ms
Stream size                    : 194 MiB (14%)
Alignment                      : Split accross interleaves
Interleave, duration           : 42  ms (1.00 video frame)
Interleave, preload duration   : 500  ms



















Havoc [Perturbadas] [2005] 480p[Avi] Latino Mega
25 Puntos Score: 8.3/10
Visitas: 1203 Favoritos: 1
Ver los usuarios que votaron...
4 Comentarios Havoc [Perturbadas] [2005] 480p[Avi] Latino Mega
Parece una buena peli bajando +10 Salu2        
Muy recomendada, gracias por el aporte!
hola amigo podrias publicar el link, tego problemas para descagar con JDownloader 2
Este post esta cerrado y no se permiten comentarios.
Para dejar un comentario Registrate! o.. eres ya usuario? Accede!