The man in the chair

Man in the chair



Man in the chair
Comedia, drama

Sinopsis
Un problemático adolescente que sueña con ser director de cine, por lo que participará en un concurso escolar cuyo ganador entrará a estudiar en una escuela de cine de los Angeles. Así conocerá a un pintoresco anciano llamado "Flash", el único superviviente del equipo de la mitica pelicula "Ciudadano Kaine" quien se convertirá en su mentor, con la ayuda de otros profesionales retirados, ellos ayudaran al joven a realizar su pelicula.




Complete name                  :Man in the chair (2007).avi
Format                         : AVI
Format/Info                    : Audio Video Interleave
File size                      : 697 MiB
Duration                       : 1 h 49 min
Overall bit rate mode          : Variable
Overall bit rate               : 891 kb/s
Writing application            : VirtualDubMod 1.5.10.2 (build 2540/release)
Writing library                : VirtualDubMod build 2540/release

Video
ID                             : 0
Format                         : MPEG-4 Visual
Format profile                 : Advanced [email protected]
Format settings, BVOP          : 1
Format settings, QPel          : No
Format settings, GMC           : No warppoints
Format settings, Matrix        : Default (H.263)
Codec ID                       : XVID
Codec ID/Hint                  : XviD
Duration                       : 1 h 49 min
Bit rate                       : 750 kb/s
Width                          : 608 pixels
Height                         : 256 pixels
Display aspect ratio           : 2.40:1
Frame rate                     : 23.976 (23976/1000) FPS
Color space                    : YUV
Chroma subsampling             : 4:2:0
Bit depth                      : 8 bits
Scan type                      : Progressive
Compression mode               : Lossy
Bits/(Pixel*Frame)             : 0.201
Stream size                    : 586 MiB (84%)
Writing library                : XviD 1.2.1 (UTC 2008-12-04)

Audio
ID                             : 1
Format                         : MPEG Audio
Format version                 : Version 1
Format profile                 : Layer 3
Mode                           : Joint stereo
Codec ID                       : 55
Codec ID/Hint                  : MP3
Duration                       : 1 h 49 min
Bit rate mode                  : Variable
Bit rate                       : 128 kb/s
Channel(s)                     : 2 channels
Sampling rate                  : 48.0 kHz
Compression mode               : Lossy
Stream size                    : 100 MiB (14%)
Alignment                      : Aligned on interleaves
Interleave, duration           : 24  ms (0.58 video frame)
Interleave, preload duration   : 125  ms








Enlaces De Descarga




rponceb



Gracias, bajando...
The man in the chair
35 Puntos Score: 8.8/10
Visitas: 907 Favoritos: 1
Ver los usuarios que votaron...
4 Comentarios The man in the chair
Gracias, se ve interesante!!
@epalada Sí, esta interesante y gracias por pasar
Para dejar un comentario Registrate! o.. eres ya usuario? Accede!