Deadpool 2016 720p Brrip Latino Mega Ligero

Deadpool 2016 720p Brrip Latino Mega Ligero





Título original:  Deadpool
Año:  2016
Duración:  106 min.
País: Estados Unidos Estados Unidos
Director: Tim Miller
Guión:  Rhett Reese, Paul Wernick (Personajes: Rob Liefeld, Fabian Nicieza)
Música: Junkie XL
Fotografía: Ken Seng
Reparto: Ryan Reynolds, Morena Baccarin, Ed Skrein, Gina Carano, T.J. Miller, Rachel Sheen, Brianna Hildebrand, Paul Lazenby, Sean Quan, Ben Wilkinson, Naika Toussaint, Olesia Shewchuk, Kyle Cassie, Style Dayne, Fabiola Colmenero, Stan Lee
Productora:  Marvel Enterprises / Marvel Studios / 20th Century Fox
Género: Acción. Fantástico. Comedia | Superhéroes. Marvel Comics. Cómic. Spin-off
Grupos: X-Men | Deadpool Novedad


Sinopsis


    Basado en el anti-héroe menos convencional de la Marvel, Deadpool narra el origen de un ex-operativo de la fuerzas especiales llamado Wade Wilson, reconvertido a mercenario, y que tras ser sometido a un cruel experimento adquiere poderes de curación rápida, adoptando Wade entonces el alter ego de Deadpool.




Deadpool.2016.720p.BRRip.mkv
Format                         : Matroska
Format version                 : Version 4 / Version 2
File size                      : 1.01 GiB
Duration                       : 1 h 48 min
Overall bit rate               : 1 339 kb/s
Movie name                     : Deadpool.2016.720p.BRRip.950MB.MkvCage
Encoded date                   : UTC 2016-05-03 18:21:10
Writing application            : mkvmerge v8.3.0 ('Over the Horizon') 64bit
Writing library                : libebml v1.3.1 + libmatroska v1.4.2

Video
ID                             : 1
Format                         : AVC
Format/Info                    : Advanced Video Codec
Format profile                 : [email protected]
Format settings, CABAC         : Yes
Format settings, ReFrames      : 9 frames
Codec ID                       : V_MPEG4/ISO/AVC
Duration                       : 1 h 48 min
Bit rate                       : 1 127 kb/s
Width                          : 1 280 pixels
Height                         : 536 pixels
Display aspect ratio           : 2.40:1
Frame rate mode                : Constant
Frame rate                     : 23.976 (24000/1001) FPS
Color space                    : YUV
Chroma subsampling             : 4:2:0
Bit depth                      : 8 bits
Scan type                      : Progressive
Bits/(Pixel*Frame)             : 0.069
Stream size                    : 871 MiB (84%)


Audio #1
ID                             : 2
Format                         : MPEG Audio
Format version                 : Version 1
Format profile                 : Layer 3
Mode                           : Joint stereo
Mode extension                 : MS Stereo
Codec ID                       : A_MPEG/L3
Codec ID/Hint                  : MP3
Duration                       : 1 h 48 min
Bit rate mode                  : Constant
Bit rate                       : 112 kb/s
Channel(s)                     : 2 channels
Sampling rate                  : 44.1 kHz
Frame rate                     : 38.281 FPS (1152 spf)
Compression mode               : Lossy
Delay relative to video        : 2 s 0 ms
Stream size                    : 86.6 MiB (8%)
Writing library                : LAME3.99r
Encoding settings              : -m j -V 4 -q 2 -lowpass 15.6 -b 112
Language                       : Spanish
Default                        : No
Forced                         : No

Audio #2
ID                             : 3
Format                         : AAC
Format/Info                    : Advanced Audio Codec
Format profile                 : HE-AAC / LC
Codec ID                       : A_AAC
Duration                       : 1 h 48 min
Bit rate                       : 99.9 kb/s
Channel(s)                     : 2 channels
Channel positions              : Front: L R
Sampling rate                  : 48.0 kHz / 24.0 kHz
Frame rate                     : 23.438 FPS (1024 spf)
Compression mode               : Lossy
Delay relative to video        : 31 ms
Stream size                    : 77.3 MiB (7%)
Language                       : English
Default                        : No
Forced                         : No

Text
ID                             : 4
Format                         : UTF-8
Codec ID                       : S_TEXT/UTF8
Codec ID/Info                  : UTF-8 Plain Text
Duration                       : 1 h 47 min
Bit rate                       : 56 b/s
Count of elements              : 1365
Stream size                    : 44.2 KiB (0%)
Language                       : Spanish
Default                        : Yes
Forced                         : No














Deadpool 2016 720p Brrip Latino Mega Ligero
20 Puntos Score: 10/10
Visitas: 2631 Favoritos: 4
Ver los usuarios que votaron...
7 Comentarios Deadpool 2016 720p Brrip Latino Mega Ligero
Muchas gracias por tu aporte!!  
Muchas gracias.
mucahs gracias por compartirla, esperaba en latino a ver que tal la tradujeron, te agradezco el tiempo que te tomas para subir y compartir, saludos.
Gracias amigo. Ya la habia descargado pero se me borro, asi que a descargar de nuevo. Gracias. +10
Para dejar un comentario Registrate! o.. eres ya usuario? Accede!