San_Martin
"Seamos libres lo demas no importa"

Exploración cósmica|HDTV|6 de 6|




Nuestro mundo, con sus altas montañas y sus profundos océanos, ha desafiado a varias generaciones de exploradores que han buscado siempre ir más allá y alcanzar lo desconocido. Siglo tras siglo, las ansias por descubrir el mundo ha llevado a los humanos a todas las esquinas del globo e incluso más allá. Y es que, nuestros ancestros nunca imaginaron que algún día podríamos ver la Tierra, el Sol y otros planetas desde el espacio.

Las últimas misiones espaciales y los adelantos en la tecnología de captación de imágenes nos han permitido tener una versión completamente distinta del sistema solar. Natura les presenta una serie documental donde podrán ver el Sol, la Luna, la Tierra y otros planetas a través de esas nuevas ventanas que constituyen las cámaras. Además, nos dará una nueva visión del cosmos, de quiénes somos, de dónde venimos y a dónde vamos.


Información del documental

Idioma: Español
Año: 2008
Nacionalidad: Canadá.
Productora: High Fidelity HDTV Media Inc.
Director: Sonya Buyting
Duración: 25 min x Epis.
Rippeo: SATRip
Tamaño: 324-400 MBs x Epis.


..:: Datos Técnicos ::..

Format/Info: Audio Video Interleave
File size: 400 MiB
Duration: 25mn 52s
Overall bit rate: 2 161 Kbps
Writing application: VirtualDubMod 1.5.4.1 (build 2178/release)
Writing library: VirtualDubMod build 2178/release

Video

Format: MPEG-4 Visual
Format profile: Advanced [email protected]
Format settings, BVOP: Yes
Format settings, QPel: No
Format settings, GMC: No warppoints
Format settings, Matrix: Custom
Codec ID: XVID
Codec ID/Hint: XviD
Duration: 25mn 52s
Bit rate: 2 026 Kbps
Width: 640 pixels
Height: 368 pixels
Display aspect ratio: 16:9
Frame rate: 25.000 fps
Resolution: 24 bits
Colorimetry: 4:2:0
Scan type: Progressive
Bits/(Pixel*Frame): 0.344
Stream size: 375 MiB (94%)
Writing library: XviD 1.2.1 (UTC 2008-12-04)

Audio

Format: MPEG Audio
Format version: Version 1
Format profile: Layer 3
Codec ID: 55
Codec ID/Hint: MP3
Duration: 25mn 52s
Bit rate mode: Constant
Bit rate: 128 Kbps
Channel(s): 2 channels
Sampling rate: 48.0 KHz
Resolution: 16 bits
Stream size: 23.7 MiB (6%)
Alignment: Aligned on interleaves
Interleave, duration: 80 ms (2.00 video frames)
Interleave, preload duration: 504 ms

















































































San.Martín
Exploración cósmica|HDTV|6 de 6|
98 Puntos Score: 9.8/10
Visitas: 963 Favoritos: 5
Ver los usuarios que votaron...
6 Comentarios Exploración cósmica|HDTV|6 de 6|
universo... excelente
excelentes aportes, muchas gracias General!!  
adoro esto gracias
gracias por el aporte!
la parte 4 tira error de contraseña, a qué puede deberse?
Para dejar un comentario Registrate! o.. eres ya usuario? Accede!