Yo Antes De Ti 2016 720p Latino Mega

Yo Antes De Ti 2016 720p Latino Mega






Título original: Me Before You
Año: 2016
Duración: 110 min.
País: Estados Unidos Estados Unidos
Director: Thea Sharrock
Guión: Jojo Moyes (Novela: Jojo Moyes)
Música:Craig Armstrong
Fotografía:Remi Adefarasin
Reparto: Emilia Clarke, Sam Claflin, Matthew Lewis, Charles Dance, Vanessa Kirby, Jenna Coleman, Janet McTeer, Brendan Coyle, Ben Lloyd-Hughes, Hannah Flynn, Amber Elizabeth, Stephen Peacocke, Alexander Cooper, Richard Gouldin, Tony Paul West
Productora: Metro-Goldwyn-Mayer (MGM) / New Line Cinema
Género: Romance | Drama romántico. Discapacidad. Young Adult



Sinopsis


    Louisa “Lou” Clark (Emilia Clarke), una chica inestable y creativa, reside en un pequeño pueblo de la campiña inglesa. Vive sin rumbo y va de un trabajo a otro para ayudar a su familia a llegar a fin de mes. Sin embargo, un nuevo trabajo pondrá a prueba su habitual alegría.


YoAntesDeTi.2016.720p.BluRay.mkv

Format                         : Matroska
Format version                 : Version 4 / Version 2
File size                      : 1.19 GiB
Duration                       : 1 h 50 min

Overall bit rate               : 1 542 kb/s
Encoded date                   : UTC 2016-08-17 19:03:18
Writing application            : mkvmerge v8.3.0 ('Over the Horizon') 64bit
Writing library                : libebml v1.3.1 + libmatroska v1.4.2

Video
ID                             : 1
Format                         : AVC
Format/Info                    : Advanced Video Codec
Format profile                 : [email protected]
Format settings, CABAC         : Yes
Format settings, ReFrames      : 4 frames
Codec ID                       : V_MPEG4/ISO/AVC
Duration                       : 1 h 50 min
Bit rate                       : 900 kb/s
Width                          : 1 280 pixels
Height                         : 534 pixels

Display aspect ratio           : 2.40:1
Original display aspect ratio  : 2.40:1
Frame rate mode                : Constant
Frame rate                     : 23.976 FPS
Color space                    : YUV
Chroma subsampling             : 4:2:0
Bit depth                      : 8 bits
Scan type                      : Progressive
Bits/(Pixel*Frame)             : 0.055
Stream size                    : 710 MiB (58%)


Audio
ID                             : 2
Format                         : AC-3
Format/Info                    : Audio Coding 3
Mode extension                 : CM (complete main)
Format settings, Endianness    : Big
Codec ID                       : A_AC3
Duration                       : 1 h 50 min
Bit rate mode                  : Constant
Bit rate                       : 640 kb/s
Channel(s)                     : 6 channels
Channel positions              : Front: L C R, Side: L R, LFE
Sampling rate                  : 48.0 kHz
Frame rate                     : 31.250 FPS (1536 spf)
Compression mode               : Lossy
Stream size                    : 505 MiB (42%)
Language                       : Spanish
Default                        : Yes
Forced                         : No







Yo Antes De Ti 2016 720p Latino Mega
55 Puntos Score: 9.2/10
Visitas: 3699 Favoritos: 4
Ver los usuarios que votaron...
9 Comentarios Yo Antes De Ti 2016 720p Latino Mega
gracias compañero.
Muchas gracias.  
amigo me puedes mandar el link x mensaje no me descarga jdowload
+10 excelente post
LA ESTOY BUSCANDO Y NO A PUEDO DESCARGAR
ESPERO TENGA SUERTE HOY .
Para dejar un comentario Registrate! o.. eres ya usuario? Accede!