Focus: Maestros de la estafa 720p latino Mega

Focus: Maestros de la estafa 720p latino Mega





Título original: Focus
Año: 2015
Duración: 104 min.
País: Estados Unidos Estados Unidos
Director: Glenn Ficarra, John Requa
Guión: Glenn Ficarra, John Requa
Música: Nick Urata
Fotografía: Xavier Pérez Grobet
Reparto:Will Smith, Margot Robbie, Rodrigo Santoro, Stephanie Honore, BD Wong, Adrian Martinez, Robert Taylor, Kate Adair, Joe Chrest, Dominic Fumusa, Nina Leon, Candice Michele Barley, Griff Furst, Brennan Brown, Juan Minujín
Productora:Warner Bros.
Género: Romance. Comedia | Comedia romántica. Crimen. Robos & Atracos
Web oficial: http://focusmovie.com/



Sinopsis
    Un veterano estafador acoge a una atractiva joven bajo su protectorado, pero las cosas se complican cuando ambos comienzan un romance. Todo comienza cuando Nicky (Will Smith), un consumado maestro de la estafa, comienza un romance con Jess (Margot Robbie), una novata en el oficio. Mientras le enseña los trucos del oficio, ella desea estrechar demasiado los lazos con Nicky, y éste rompe de repente la relación. Tres años más tarde, la mujer que había encendido una llama en él, convertida en una mujer fatal, reaparece en Buenos Aires en un circuito de carreras en el que hay apuestas muy elevadas.

Focus.2015.BluRay.720p.Dual.mkv

Format                         : Matroska
File size                      : 1.06 gb
Duration                       : 1 h 44 min
Overall bit rate               : 1 450 kb/s
Movie name                     : Focus 2015 720p BluRay x264
Encoded date                   : UTC 2015-05-25 14:57:11
Writing application            : mkvmerge v7.9.0 ('Birds') 64bit
Writing library                : libebml v1.3.1 + libmatroska v1.4.2

Video
ID                             : 1
Format                         : AVC
Format/Info                    : Advanced Video Codec
Format profile                 : [email protected]
Format settings, CABAC         : Yes
Format settings, ReFrames      : 4 frames
Codec ID                       : V_MPEG4/ISO/AVC
Duration                       : 1 h 44 min
Bit rate                       : 1 001 kb/s
Width                          : 1 280 pixels
Height                         : 720 pixels
Display aspect ratio           : 16:9
Frame rate mode                : Constant
Frame rate                     : 23.976 (24000/1001) FPS
Color space                    : YUV
Chroma subsampling             : 4:2:0
Bit depth                      : 8 bits
Scan type                      : Progressive
Bits/(Pixel*Frame)             : 0.045
Stream size                    : 749 MiB (69%)


Audio #1
ID                             : 2
Format                         : AC-3
Format/Info                    : Audio Coding 3
Mode extension                 : CM (complete main)
Format settings, Endianness    : Big
Codec ID                       : A_AC3
Duration                       : 1 h 44 min
Bit rate mode                  : Constant
Bit rate                       : 384 kb/s
Channel(s)                     : 6 channels
Channel positions              : Front: L C R, Side: L R, LFE
Sampling rate                  : 48.0 kHz
Frame rate                     : 31.250 FPS (1536 spf)
Compression mode               : Lossy
Delay relative to video        : 2 s 500 ms
Stream size                    : 287 MiB (26%)
Language                       : Spanish
Default                        : No
Forced                         : No

Audio #2
ID                             : 3
Format                         : AAC
Format/Info                    : Advanced Audio Codec
Format profile                 : HE-AAC / LC
Codec ID                       : A_AAC
Duration                       : 1 h 44 min
Bit rate                       : 64.0 kb/s
Channel(s)                     : 2 channels
Channel positions              : Front: L R
Sampling rate                  : 48.0 kHz / 24.0 kHz
Frame rate                     : 23.438 FPS (1024 spf)
Compression mode               : Lossy
Stream size                    : 47.9 MiB (4%)
Language                       : English
Default                        : No
Forced                         : No













Focus: Maestros de la estafa 720p latino Mega
4 Puntos Score: 4/10
Visitas: 1922 Favoritos: 1
Ver los usuarios que votaron...
6 Comentarios Focus: Maestros de la estafa 720p latino Mega
me la llevo, gracias!
:up:tuanis loco
Estimado me puedes enviar el link por mensaje, ya que tengo problemas con agregar la cuenta a jdownloader
da caido el mega
Para dejar un comentario Registrate! o.. eres ya usuario? Accede!