Gang Related (1997) - [1080p-Dual] - 2Pac [Mega]

Gang Related (1997) - 1080p - Dual Latino-Ingles



Sinopsis

La historia trata de dos asesinos están escondidos en un lugar donde nadie los encontraría… ¡detrás de sus placas! Tupac ShakurTupac Shakur (en su última y más relevante actuación) y James Belushi son dos detectives de la policía corruptos atrapados en una peligrosa red de engaños y mentiras en este “valiente, inteligente y duro” thriller de acción que te mantendrá atento desde principio a fin. Los detectives Divinci (James Belushi) y Rodríguez (Tupac Shakur) practican su propio juego de justicia callejera: arreglan un trato de drogas, toman el dinero para ellos y luego asesinan a los dealers. Es un fraude lucrativo que ha estado funcionando sin ninguna dificultad por meses. Pero cuando descubren que su última víctima fue un oficial de encubierto con la Drug Enforcement Agency, más conocida como la DEA, los dos policías corruptos son forzados a iniciar un peligroso plan para salvar sus propias vidas. Y así como su infalible plan empieza a insanamente perder control, Divinci y Rodríguez, o sea Belushi y Tupac Shakur, quedan atrapados en un tornado de sospechas, traiciones y asesinatos en los que ya no pueden confiar en nadie…ni siquiera el uno en el otro.


MediaInfo

Format                      : Matroska
Format version              : Version 4 / Version 2
File size                   : 3.42 GiB
Duration                    : 1 h 51 min
Overall bit rate            : 4 391 kb/s
Movie name                  : Gang.Related.1997.1080p.H264
Encoded date                : UTC 2016-06-04 21:36:57
Writing application         : mkvmerge v8.1.0 ('Psychedelic Postcard') 64bit
Writing library             : libebml v1.3.1 + libmatroska v1.4.2
Video
ID                          : 1
Format                      : AVC
Format/Info                 : Advanced Video Codec
Format profile              : [email protected]
Format settings, CABAC      : Yes
Format settings, ReFrames   : 5 frames
Codec ID                    : V_MPEG4/ISO/AVC
Duration                    : 1 h 51 min
Bit rate                    : 3 880 kb/s
Width                       : 1 912 pixels
Height                      : 812 pixels
Display aspect ratio        : 2.35:1
Frame rate mode             : Constant
Frame rate                  : 23.976 (23976/1000) FPS
Color space                 : YUV
Chroma subsampling          : 4:2:0
Bit depth                   : 8 bits
Scan type                   : Progressive
Bits/(Pixel*Frame)          : 0.104
Stream size                 : 3.02 GiB (88%)
Title                       : Gang.Related.1997.1080p.H264
Language                    : English
Default                     : Yes
Forced                      : No
Color range                 : Limited
Color primaries             : BT.709
Transfer characteristics    : BT.709
Matrix coefficients         : BT.709
Audio #1
ID                          : 2
Format                      : AAC
Format/Info                 : Advanced Audio Codec
Format profile              : LC
Codec ID                    : A_AAC
Duration                    : 1 h 51 min
Bit rate                    : 126 kb/s
Channel(s)                  : 2 channels
Channel positions           : Front: L R
Sampling rate               : 44.1 kHz
Frame rate                  : 43.066 FPS (1024 spf)
Compression mode            : Lossy
Delay relative to video     : 10 ms
Stream size                 : 100 MiB (3%)
Title                       : Español Latino
Language                    : Spanish
Default                     : Yes
Forced                      : No
Audio #2
ID                          : 3
Format                      : AC-3
Format/Info                 : Audio Coding 3
Mode extension              : CM (complete main)
Format settings, Endianness : Big
Codec ID                    : A_AC3
Duration                    : 1 h 51 min
Bit rate mode               : Constant
Bit rate                    : 384 kb/s
Channel(s)                  : 6 channels
Channel positions           : Front: L C R, Side: L R, LFE
Sampling rate               : 48.0 kHz
Frame rate                  : 31.250 FPS (1536 spf)
Compression mode            : Lossy
Stream size                 : 306 MiB (9%)
Title                       : Audio Ingles
Language                    : English
Default                     : No
Forced                      : No


Capturas











Link



[Bonus]
Soundtrack




Formato .m4a iTunes Plus

Link




No Olviden Dejar Sus Puntos 
Y Comentar Que Les Parecio

Gang Related (1997) - [1080p-Dual] - 2Pac [Mega]
30 Puntos Score: 10/10
Visitas: 699 Favoritos: 1
Ver los usuarios que votaron...
2 Comentarios Gang Related (1997) - [1080p-Dual] - 2Pac [Mega]
gracias, tendrias mas de 2pac?
No se puede descargar de todos modos gracias
Para dejar un comentario Registrate! o.. eres ya usuario? Accede!