mr robot 2x02 720p

mr robot s02e02









Mr. Robot es una serie de televisión estadounidense creada por Sam Esmail.1 Se estrenó el 24 de junio de 2015 en la cadena USA Network. El mismo día la serie se renovó para una segunda temporada, estrenada el 13 de julio de 2016.2

La serie sigue a Elliot (Rami Malek), un joven hacker que sufre de fobia social, depresión clínica y delirios3 , trabaja como ingeniero de seguridad informática y usa sus habilidades para proteger a las personas por las que se preocupa. Elliot es reclutado por Mr. Robot (Christian Slater), el misterioso líder de un grupo de hackers que quiere destruir a poderosos empresarios de multinacionales que están manejando el mundo.

Format                      : Matroska
Format version              : Version 4 / Version 2
File size                   : 611 MiB
Duration                    : 41mn 50s
Overall bit rate            : 2 041 Kbps
Encoded date                : UTC 2016-07-14 04:03:41
Writing application         : mkvmerge v9.0.1 ('Obstacles') 64bit
Writing library             : libebml v1.3.3 + libmatroska v1.4.4

Video
ID                          : 1
Format                      : AVC
Format/Info                 : Advanced Video Codec
Format profile              : [email protected]
Format settings, CABAC      : Yes
Format settings, ReFrames   : 5 frames
Codec ID                    : V_MPEG4/ISO/AVC
Duration                    : 41mn 50s
Bit rate                    : 1 616 Kbps
Width                       : 1 280 pixels
Height                      : 718 pixels
Display aspect ratio        : 16:9
Frame rate mode             : Constant
Frame rate                  : 23.976 (24000/1001) fps
Color space                 : YUV
Chroma subsampling          : 4:2:0
Bit depth                   : 8 bits
Scan type                   : Progressive
Bits/(Pixel*Frame)          : 0.073
Stream size                 : 484 MiB (79%)
Writing library             : x264 core 148 r2705 3f5ed56
Encoding settings           : cabac=1 / ref=5 / deblock=1:0:0 / analyse=0x3:0x113 / me=umh / subme=8 / psy=1 / psy_rd=1.00:0.00 / mixed_ref=1 / me_range=16 / chroma_me=1 / trellis=1 / 8x8dct=1 / cqm=0 / deadzone=21,11 / fast_pskip=1 / chroma_qp_offset=-2 / threads=22 / lookahead_threads=3 / sliced_threads=0 / nr=0 / decimate=1 / interlaced=0 / bluray_compat=0 / constrained_intra=0 / bframes=3 / b_pyramid=2 / b_adapt=2 / b_bias=0 / direct=3 / weightb=1 / open_gop=0 / weightp=2 / keyint=250 / keyint_min=23 / scenecut=40 / intra_refresh=0 / rc_lookahead=50 / rc=crf / mbtree=1 / crf=18.0 / qcomp=0.60 / qpmin=0 / qpmax=69 / qpstep=4 / ip_ratio=1.40 / aq=1:1.00
Default                     : Yes
Forced                      : No
Color range                 : Limited
Matrix coefficients         : BT.709

Audio
ID                          : 2
Format                      : AC-3
Format/Info                 : Audio Coding 3
Mode extension              : CM (complete main)
Format settings, Endianness : Big
Codec ID                    : A_AC3
Duration                    : 41mn 50s
Bit rate mode               : Constant
Bit rate                    : 384 Kbps
Channel(s)                  : 6 channels
Channel positions           : Front: L C R, Side: L R, LFE
Sampling rate               : 48.0 KHz
Frame rate                  : 31.250 fps (1536 spf)
Compression mode            : Lossy
Stream size                 : 115 MiB (19%)
Default                     : Yes
Forced                      : No








Sin Pass



610 MB con subtitulos finales latinoamerica
mr robot 2x02 720p
0 Puntos Score: 0/10
Visitas: 246 Favoritos: 0
Más del Autor...
0 Comentarios mr robot 2x02 720p
Este post no tiene comentarios. Sea el primero!
Para dejar un comentario Registrate! o.. eres ya usuario? Accede!