mr robot 2x01 720p

Mr. Robot es una serie de televisión estadounidense creada por Sam Esmail.Se estrenó el 24 de junio de 2015 por la cadena USA Network. El mismo día la serie se renovó para una segunda temporada que se lanzara el 13 de julio de 2016.
La serie sigue a Elliot (Rami Malek), un joven Hacker que sufre algún tipo de trastorno, trabaja como ingeniero de seguridad informática y usa sus habilidades para proteger a las personas por las que se preocupa. Elliot es reclutado por Mr. Robot(Christian Slater), un misterioso líder de un grupo de Hackers quien quiere destruir a poderosos empresarios demultinacionales que están manejando el mundo.

mr robot 2x01 720p









Serie de TV. Elliot Anderson es un joven y brillante programador con problemas para las relaciones sociales que durante el día trabaja como técnico de ciberseguridad de una importante empresa informática y por la noche es un desinteresado justiciero cibernético, que se verá envuelto en una oscura trama.

Format                      : Matroska
Format version              : Version 4 / Version 2
File size                   : 958 MiB
Duration                    : 40mn 35s
Overall bit rate            : 3 299 Kbps
Encoded date                : UTC 2016-07-11 02:42:14
Writing application         : mkvmerge v9.2.0 ('Photograph') 64bit
Writing library             : libebml v1.3.3 + libmatroska v1.4.4

Video
ID                          : 1
Format                      : AVC
Format/Info                 : Advanced Video Codec
Format profile              : [email protected]
Format settings, CABAC      : Yes
Format settings, ReFrames   : 4 frames
Codec ID                    : V_MPEG4/ISO/AVC
Duration                    : 40mn 35s
Bit rate                    : 3 206 Kbps
Width                       : 1 280 pixels
Height                      : 720 pixels
Display aspect ratio        : 16:9
Frame rate mode             : Variable
Frame rate                  : 30.000 fps
Color space                 : YUV
Chroma subsampling          : 4:2:0
Bit depth                   : 8 bits
Scan type                   : Progressive
Bits/(Pixel*Frame)          : 0.116
Stream size                 : 931 MiB (97%)
Default                     : Yes
Forced                      : No

Audio
ID                          : 2
Format                      : AAC
Format/Info                 : Advanced Audio Codec
Format profile              : LC
Codec ID                    : A_AAC
Duration                    : 40mn 35s
Bit rate                    : 90.2 Kbps
Channel(s)                  : 2 channels
Channel positions           : Front: L R
Sampling rate               : 44.1 KHz
Frame rate                  : 43.066 fps (1024 spf)
Compression mode            : Lossy
Delay relative to video     : 13ms
Stream size                 : 26.2 MiB (3%)
Default                     : Yes
Forced                      : No








Sin Pass





mr robot 2x01 720p
0 Puntos Score: 0/10
Visitas: 219 Favoritos: 1
Más del Autor...
19 Comentarios mr robot 2x01 720p
gracias   bajando
Cita jack72: Mostrar
con gusto
Ah muchas gracias hermano, estaba esperando el inicio de esta serie.
Cita kross: Mostrar
si este capitulo se filtro antes de su estreno cortesia fsociety
con gusto
Cita gol300: Mostrar
congusto
Cita andy4216: Mostrar
O evilcorp jjaja
Cita marc80: Mostrar
gracias a los que me dejaron puntos
aaaaa no se si soy yo solo pero cuando intento descargar, dice que se descargara en segundo plano y reviso y no veo nada. mipony no lo descarga y quiero verla  
Cita aragongg: Mostrar

desactiva el adblock de tu navegador y en la barra de direcciones permitir ventanas emergentes de identi te sale una nueva ventana das en la publicidad sin cerrar la ventana y en 15 a 20 segundos te muestra el link de descarga
Gracias. Muy chévere.
Cita daniskk: Mostrar
con gusto que lo disfrutes
Se agradece el aporte  , pero está en la categoría equivocada, es serie, no película.
Cita edu_k: Mostrar
corregido gracias
muchas gracias excelente aporte te dejo mis 10  
Cita jaxsons: Mostrar
con gusto recuerda que en el ultimo link estan los subtitulos mejorados gracias por los puntos
Gracias! Te dejaría puntos si pudiera :c
Cita Ninjadudee: Mostrar
con gusto
Para dejar un comentario Registrate! o.. eres ya usuario? Accede!