Oops.. Este post tiene los enlaces eliminados!

Identi revisa las denuncias de los usuarios en busca de enlaces eliminados que no dejan descargar los archivos, este mensaje te informa que este post que estas viendo tiene los enlaces eliminados.

Usa el Buscador

Por favor, te recomendamos que uses el buscador para encontrar más alternativas.

El Castor [DvDRip 2011] [Latino]

  • Categoría: Reciclaje
  • Publicado hace más de 5 años
 


El Castor  [DvDRip 2011] [Latino]



TÍTULO ORIGINAL: The Beaver
AÑO: 2011
DURACIÓN: 91 min.
PAÍS: Estados Unidos
DIRECTOR: Jodie Foster
GUIÓN: Kyle Killen
MÚSICA: Marcelo Zarvos
FOTOGRAFÍA: Hagen Bogdanski
REPARTO: Mel Gibson, Jodie Foster, Anton Yelchin, Jennifer Lawrence, Riley Thomas Stewart, Paul Hodge, Michelle Ang
PRODUCTORA: Summit Entertainment / Entertainment One
WEB OFICIAL: thebeaver-movie.com/
GÉNERO: Drama. Comedia



General

Format                 : AVI
Format/Info              : Audio Video Interleave
File size                : 700 MiB
Duration               : 1h 29mn
Overall bit rate           : 1 093 Kbps

Video
ID                   : 0
Format                 : MPEG-4 Visual
Format profile             : Advanced [email protected]
Format settings, BVOP        : 1
Format settings, QPel        : No
Format settings, GMC         : No warppoints
Format settings, Matrix      : Custom
Codec ID               : XVID
Codec ID/Hint            : XviD
Duration               : 1h 29mn
Bit rate               : 972 Kbps
Width                  : 720 pixels
Height                 : 416 pixels
Display aspect ratio         : 16:9
Frame rate               : 23.976 fps
Color space              : YUV
Chroma subsampling         : 4:2:0
Bit depth                : 8 bits
Scan type                : Progressive
Compression mode           : Lossy
Bits/(Pixel*Frame)         : 0.135
Stream size              : 622 MiB (89%)
Writing library            : XviD 64

Audio
ID                   : 1
Format                 : MPEG Audio
Format version             : Version 1
Format profile             : Layer 3
Mode                   : Joint stereo
Mode extension             : MS Stereo
Codec ID               : 55
Codec ID/Hint            : MP3
Duration               : 1h 29mn
Bit rate mode            : Constant
Bit rate               : 112 Kbps
Channel(s)               : 2 channels
Sampling rate            : 44.1 KHz
Compression mode           : Lossy
Delay relative to video      : 2ms
Stream size              : 71.7 MiB (10%)
Alignment                : Split accross interleaves
Interleave, duration         : 42 ms (1.00 video frame)
Interleave, preload duration   : 500 ms








Water Black (Mel Gibson) está sumido en una profunda depresión. Su vida se viene abajo y ni su mujer (Jodie Foster) ni sus hijos saben cómo ayudarle. Un día, ya al límite de la desesperación, encuentra una marioneta con forma de castor en un cubo de basura. A partir de ese momento la vida de Walter da un giro radical.








contraseña: www.identi.li


El Castor [DvDRip 2011] [Latino]
40 Puntos Score: 5.7/10
Visitas: 4541 Favoritos: 4
Ver los usuarios que votaron...
6 Comentarios El Castor [DvDRip 2011] [Latino]
se han caido los links
Cita 14blackjack: Mostrar
resubidos
no la alcanse a bajar....
SE CAYO DE NUEVO...LINK NO FUNKA
NO funcionan link.... dicen borrados
Noo , no la pude descargar, la podrias Volver aresubir de nuevo porfavor  
Para dejar un comentario Registrate! o.. eres ya usuario? Accede!