Good Night Mommy 1080p [2014] 6,5 gb

Good Night Mommy 1080p









Reseña

En el interior de una casa aislada en el campo, dos pequeños gemelos, Lukas y Elías, esperan a que su madre regrese de una operación de cirugía plástica. Cuando lo hace, sienten que ya nada es como antes, y que la persona que ha vuelto no es su madre. Conforme ella se comporte de manera más estricta con ella, los niños dudan cada vez más de la identidad de la persona que se esconde tras los vendajes de su cara...







asincrono






Subtitulos Latino

https://mega.nz/#!SNInSTQA!Kdh1rp0XTEHec4N_lBTXnuESLt_TtH3mRPgzeaEj7bw

Información técnica

Video
ID                          : 2
Format                      : AVC
Format/Info                 : Advanced Video Codec
Format profile              : [email protected]
Format settings, CABAC      : Yes
Format settings, ReFrames   : 5 frames
Codec ID                    : V_MPEG4/ISO/AVC
Duration                    : 1h 35mn
Bit rate                    : 1 143 Kbps
Width                       : 1 280 pixels
Height                      : 536 pixels
Display aspect ratio        : 2.40:1
Frame rate mode             : Constant
Frame rate                  : 25.000 fps
Color space                 : YUV
Chroma subsampling          : 4:2:0
Bit depth                   : 8 bits
Scan type                   : Progressive
Bits/(Pixel*Frame)          : 0.067
Stream size                 : 782 MiB (92%)
Writing library             : x264 core 146 r2538 121396c
Encoding settings           : cabac=1 / ref=5 / deblock=1:-1:-1 / analyse=0x3:0x113 / me=umh / subme=8 / psy=1 / psy_rd=1.00:0.00 / mixed_ref=1 / me_range=16 / chroma_me=1 / trellis=1 / 8x8dct=1 / cqm=0 / deadzone=21,11 / fast_pskip=1 / chroma_qp_offset=-2 / threads=12 / lookahead_threads=2 / sliced_threads=0 / nr=0 / decimate=1 / interlaced=0 / bluray_compat=0 / constrained_intra=0 / bframes=3 / b_pyramid=2 / b_adapt=2 / b_bias=0 / direct=3 / weightb=1 / open_gop=0 / weightp=2 / keyint=250 / keyint_min=25 / scenecut=40 / intra_refresh=0 / rc_lookahead=50 / rc=2pass / mbtree=1 / bitrate=1143 / ratetol=1.0 / qcomp=0.60 / qpmin=10 / qpmax=51 / qpstep=4 / cplxblur=20.0 / qblur=0.5 / vbv_maxrate=62500 / vbv_bufsize=78125 / nal_hrd=none / filler=0 / ip_ratio=1.40 / aq=1:1.00
Default                     : Yes
Forced                      : No

Audio
ID                          : 3
Format                      : AAC
Format/Info                 : Advanced Audio Codec
Format profile              : HE-AAC / LC
Codec ID                    : A_AAC
Duration                    : 1h 35mn
Bit rate                    : 99.4 Kbps
Channel(s)                  : 2 channels
Channel positions           : Front: L R
Sampling rate               : 48.0 KHz / 24.0 KHz
Frame rate                  : 23.438 fps (1024 spf)
Compression mode            : Lossy
Delay relative to video     : 31ms
Stream size                 : 68.1 MiB (8%)
Language                    : German
Default                     : Yes
Forced                      : No

Text
ID                          : 1
Format                      : UTF-8
Codec ID                    : S_TEXT/UTF8
Codec ID/Info               : UTF-8 Plain Text
Duration                    : 1h 31mn
Bit rate                    : 15 bps
Count of elements           : 462
Stream size                 : 10.6 KiB (0%)
Default                     : Yes
Forced                      : No




No olviden comentar, si tienen problemas de algún tipo favor avísenme, disfruten la peli....


Links arreglados...
Good Night Mommy 1080p [2014] 6,5 gb
10 Puntos Score: 10/10
Visitas: 1603 Favoritos: 1
Ver los usuarios que votaron...
8 Comentarios Good Night Mommy 1080p [2014] 6,5 gb
BRO REVISA LOS LINKS NO LOS AGREGA A JDOWN...
@cris_smith Broh tienes razon te dejo el link, y para el que tenga problemas https://mega.nz/#!fQAjTBiC!JQKfnmsukM8DVYIRLiq__IwhefOFn-jsbu1fRoKNfgU

saludos.
LISTO GRACIAS PAPAY...... GGG
BRO EL CODIGO DE DESENCRIPTAR LOS SUBTITULOS NO HAY GGG
@cris_smith Broh por si les pide la llave para la peli es : !JQKfnmsukM8DVYIRLiq__IwhefOFn-jsbu1fRoKNfgU
y para los subs: !Kdh1rp0XTEHec4N_lBTXnuESLt_TtH3mRPgzeaEj7bw

saludos.
Cita Maister: Mostrar
Gracias! Alguno prob?
Cita morgoth6: Mostrar
Cita Maister: Mostrar
Para dejar un comentario Registrate! o.. eres ya usuario? Accede!