UFallen
"Pueden buscarme en Facebook como "UltimateFallen""

Brickleberry | 03x01 | [720p] [WEB-Dl] [Dual]

Brickleberry
Temporada 3 
- Episodio 1 ("Obamascare")

720p | WEB-Dl | Español Latino 2.0 / Ingles 5.1






General
Complete name : Brickleberry.S03E01.720p.WEB-DL.H.264-UF-nopan.mkv
Format: Matroska
Format version: Version 4 / Version 2
File size : 230 MiB
Duration: 21mn 38s
Overall bit rate: 1 486 Kbps

Video
ID: 1
Format: AVC
Format/Info : Advanced Video Codec
Format profile: [email protected]
Codec ID: V_MPEG4/ISO/AVC
Duration: 21mn 38s
Bit rate: 1 099 Kbps
Width : 1 280 pixels
Height: 720 pixels
Display aspect ratio: 16:9
Frame rate mode : Constant
Frame rate: 23.976 (24000/1001) fps
Stream size : 170 MiB (74%)

Audio #1
ID: 2
Format: AAC
Format/Info : Advanced Audio Codec
Format profile: LC
Codec ID: A_AAC
Duration: 21mn 38s
Bit rate: 192 Kbps
Channel(s): 2 channels
Channel positions : Front: L R
Sampling rate : 48.0 KHz
Stream size : 29.7 MiB (13%)
Language: Spanish

Audio #2
ID: 3
Format: AAC
Format/Info : Advanced Audio Codec
Format profile: LC
Codec ID: A_AAC
Duration: 21mn 38s
Bit rate: 192 Kbps
Channel(s): 2 channels
Channel positions : Front: L R
Sampling rate : 48.0 KHz
Frame rate: 46.875 fps (1024 spf)
Stream size : 29.7 MiB (13%)
Language: English

Text
ID: 4
Format: UTF-8
Codec ID: S_TEXT/UTF8
Codec ID/Info : UTF-8 Plain Text
Duration: 2s 586ms
Bit rate: 139 bps
Stream size : 45.0 Bytes (0%)
Language: Spanish
Default : Yes
Forced: Yes














ultimatefallen




Archivo alojado en MEGA. Formaro .RAR con 7 % de registro de recuperación.


Tamaño total: 246.0 MB | Contenido: 1 archivo




NO envió enlaces por Mensaje Privado.

NO envió solo el audio.

NO respondo preguntas que no estén relacionadas con el material publicado.

Si vas a resubir / publicar esté aporte a otra web, decencia de citarme.
Brickleberry | 03x01 | [720p] [WEB-Dl] [Dual]
48 Puntos Score: 9.6/10
Visitas: 642 Favoritos: 0
Ver los usuarios que votaron...
8 Comentarios Brickleberry | 03x01 | [720p] [WEB-Dl] [Dual]
mil gracias tus aportes son increibles sigue asi, disculpa cuantas temporadas son de esta serie?
muchas gracias amigo exelentes tus aportes, espero subas las demas temporadas  
Cita jorge1130: Mostrar

Tres temporada, con un total de 36 episodios.



Cita felipex_9: Mostrar

Lo siento, pero se me hace dif?
@UFallen No sabes donde pueda descargar las dos primeras temporadas??
mil gracias por todo tu trabajo y esfuerzo, esperando mas capitulos y si puedes poner las temporadas anteriores seria excelente
de nuevo nuchas gracias  
buenos aportes
me gusto el "decencia de citarme"
gracias amigo ya te estoy siguendo en face muchas gracias por tus aportes una duda subiras esta temporada 3 completa solo me falta esta temporada gracias
Para dejar un comentario Registrate! o.. eres ya usuario? Accede!