The Witcher La Serie

Como prometi en el post de los libros de The Witcher aca les traigo la serie, espero sepan agradecer porque mi internet es de 2 mbs y sube a 60 kbps, por lo que estube 24 hs subiendo la serie, en internet no esta postiada para descargar en ningun lado, solo para visionado online, asi que yo les traigo la serie por MEGA asi la pueden descargar mas comodamente, es la unica version subtitlada al español que existe, asi que no hay ni mejores calidades de audio, ni video, ni subtitulos.






Datos tecnicos: (todos los episodios tienen la misma resolución y calidad)


Format                      : MPEG-4
Format profile              : Base Media
Codec ID                    : isom (isom/iso2/avc1/mp41)
File size                   : 380 MiB
Duration                    : 52mn 53s
Overall bit rate            : 1 005 Kbps
Writing application         : Lavf55.49.100

Video
ID                          : 1
Format                      : AVC
Format/Info                 : Advanced Video Codec
Format profile              : [email protected]
Format settings, CABAC      : Yes
Format settings, ReFrames   : 3 frames
Codec ID                    : avc1
Codec ID/Info               : Advanced Video Coding
Duration                    : 52mn 53s
Bit rate                    : 745 Kbps
Width                       : 854 pixels
Height                      : 480 pixels
Display aspect ratio        : 16:9
Frame rate mode             : Constant
Frame rate                  : 25.000 fps
Color space                 : YUV
Chroma subsampling          : 4:2:0
Bit depth                   : 8 bits
Scan type                   : Progressive
Bits/(Pixel*Frame)          : 0.073
Stream size                 : 282 MiB (74%)

Audio
ID                          : 2
Format                      : AAC
Format/Info                 : Advanced Audio Codec
Format profile              : LC
Codec ID                    : 40
Duration                    : 52mn 53s
Bit rate mode               : Constant
Bit rate                    : 254 Kbps
Channel(s)                  : 2 channels
Channel positions           : Front: L R
Sampling rate               : 44.1 KHz
Frame rate                  : 43.066 fps (1024 spf)
Compression mode            : Lossy
Stream size                 : 95.9 MiB (25%)
Default                     : Yes
Alternate group             : 1







The Witcher La Serie
83 Puntos Score: 9.2/10
Visitas: 1580 Favoritos: 5
Ver los usuarios que votaron...
31 Comentarios The Witcher La Serie
Estupendos los libros , a ver la serie
@reulli Disfrutala, luego si quieres deja unos puntillos  
van 10 por el esfuerzo  
Cita gamas: Mostrar
Gracias @gamas por los puntos, si la verdad costo subirla jajaja
Gracias por el aporte. Te dar?
Cita peluxe2010: Mostrar
Se agradece el esfuerzo.
Cita steampunk: Mostrar
@steampunk Gracias!!! Disfruta todo.
@Tortuga3 Muchas gracias, disfrutalos
Millon de gracias por tremendo aporte amigo!!!
Cita Shenmue19: Mostrar
 @Shenmue19 De nada, si la verdad es un tremendo aporte no solo para Identi, sino para la internet en si este post, ya que a muchas personas les falta la serie como forma de colecci?
@Alekzek @aqweds gracias por pasar y dejar puntos!!!
gracias a ti amigo, la serie me la llevo! los libros ya los tengo, los estoy leyendo en mi e-reader  , pero hiciste un gran aporte! saludos  
@avnfella Gracias por los puntos y por pasarte en mi post, disfruta la serie!!!
esto tiene que ver algo con el juego? lo tengo para ps4 y esto suena interezante   +10
gracias fantastico
@8806643 Gracias por comentar y dar puntos, te explico, The Witcher naci?
@pepe491 De nada, gracias por agradecer  
@Rong De nada, gracias por los puntos, mira taaaan mala no es, o sea si sos fan  te la ves jaja, no tiene 1 millon de dolares ensima pero bueno
@ReinalesMR Me exprese mal, no en espa?
Hola Amigo mira hay enlaces caidos puedes verlos por favor gracias
@hcruz Mira los revise a todos con el jdownloader y estan todos bien, quizas algun error temporal de mega, siempre pasa con esa pagina...
Oka muchas gracias los ver?
muchas gracias viejo, espero que esten basados en los libros y que no sea como el juego que solo usa los personajes de los libros, mas no las historia
Agradezco mucho tu aporte, voy a disfrutarlo.  
@Tifa789 Gracias por pasar y comentar y por los puntos!!!!  
Para dejar un comentario Registrate! o.. eres ya usuario? Accede!