UFallen
"Pueden buscarme en Facebook como "UltimateFallen""

American Dad! | 01x01 | [720p (Upscale)] [Dual]

American Dad!
Temporada 1
- Episodio 1

- 720p (Upscale) | DVDRip

Español Latino 2.0 / Ingles 5.1 | Sub. Español -




General
Complete name               : American.Dad.S01E01.720p.UPSCALE.DVD-RIP.DUAL.van07-UF.mkv
Format                      : Matroska
Format version              : Version 4 / Version 2
File size                   : 364 MiB
Duration                    : 21mn 52s
Overall bit rate            : 2 324 Kbps

Video
ID                          : 1
Format                      : AVC
Format/Info                 : Advanced Video Codec
Format profile              : [email protected]
Format settings, CABAC      : Yes
Format settings, ReFrames   : 16 frames
Codec ID                    : V_MPEG4/ISO/AVC
Duration                    : 21mn 52s
Bit rate                    : 1 682 Kbps
Width                       : 960 pixels
Height                      : 720 pixels
Display aspect ratio        : 4:3
Frame rate mode             : Constant
Frame rate                  : 23.976 (24000/1001) fps

Audio #1
ID                          : 2
Format                      : AAC
Format/Info                 : Advanced Audio Codec
Format profile              : LC
Codec ID                    : A_AAC
Duration                    : 21mn 52s
Bit rate                    : 192 Kbps
Channel(s)                  : 2 channels
Channel positions           : Front: L R
Sampling rate               : 48.0 KHz
Frame rate                  : 46.875 fps (1024 spf)
Compression mode            : Lossy
Stream size                 : 29.9 MiB (8%)
Language                    : Spanish
Default                     : Yes
Forced                      : No

Audio #2
ID                          : 3
Format                      : AAC
Format/Info                 : Advanced Audio Codec
Format profile              : LC
Codec ID                    : A_AAC
Duration                    : 21mn 52s
Bit rate                    : 447 Kbps
Channel(s)                  : 6 channels
Channel positions           : Front: L C R, Side: L R, LFE
Sampling rate               : 48.0 KHz
Frame rate                  : 46.875 fps (1024 spf)
Compression mode            : Lossy
Stream size                 : 69.9 MiB (19%)
Language                    : English
Default                     : No
Forced                      : No

Text #1
ID                          : 4
Format                      : UTF-8
Codec ID                    : S_TEXT/UTF8
Codec ID/Info               : UTF-8 Plain Text
Duration                    : 6mn 17s
Bit rate                    : 2 bps
Count of elements           : 3
Stream size                 : 112 Bytes (0%)
Language                    : Spanish
Default                     : Yes
Forced                      : Yes

Text #2
ID                          : 5
Format                      : UTF-8
Codec ID                    : S_TEXT/UTF8
Codec ID/Info               : UTF-8 Plain Text
Duration                    : 21mn 40s
Bit rate                    : 107 bps
Count of elements           : 380
Stream size                 : 17.1 KiB (0%)
Language                    : Spanish
Default                     : No
Forced                      : No











ultimatefallen




Archivo alojado en MEGA. Formaro .RAR con 7 % de registro de recuperación.


Tamaño total: 363.5 MB | Contenido: 1 archivo





Antes que nada: gracias al usuario @van07 por compartir los audios.


Voy a explicar los del 720p, NO, no es un vídeo de alta definición "real". Tome de fuente el DVD de la serie (que donde está la mayor calidad), le aplique un par de filtros para mejor los trazos y color de la imagen. Y en camino aumenta la resolución a 960x720 (conservando la relación de aspecto 4:3), está combinación genero un vídeo con un poco más de calidad y así es más apreciable en los monitores / televisores que reproducen en HD.


Están a mi disposición todos los audios de la temporada, quería publicar esté para que me dijeran si seguirlos de la misma manera o que cambie algo.


---------------------------------------------------------------------------------------------------


NO envió enlaces por Mensaje Privado.

NO envió solo el audio.

NO respondo preguntas que no estén relacionadas con el material publicado.

Si vas a resubir / publicar esté aporte a otra web, decencia de citarme.
American Dad! | 01x01 | [720p (Upscale)] [Dual]
63 Puntos Score: 9/10
Visitas: 565 Favoritos: 2
Ver los usuarios que votaron...
9 Comentarios American Dad! | 01x01 | [720p (Upscale)] [Dual]
Subela!!!!! En todos lados se encuentran las dos primeras temporadas pero en castellano, aporte ?
subelas asi esta bien es la mejor defincion que existe, asi quedaria american dad completa exclusiva para identi ya que esas me faltaron de subir en latino porque no existen en la web
se ve bien la calidad continua con el proyecto de american dad
tus proyectos son de excelencia, por lo cual apoyo que continues subiendola.
sube la completa genio
Ya la tengo bajada, pero por la info creo que esta estara mucho mejor.
Asi que subela completa porfavor que me bajo de nuevo esta serie.
si continua brother muchas gracias, ojala consigas las otras temporadas que no est?
Para dejar un comentario Registrate! o.. eres ya usuario? Accede!